The.Walking.Dead.S07E07.720p.HDTV.DD+5.1.x264-NTb[PRiME]

seeders: 176
leechers: 139
updated:
Added by Simmoncelli5.68 GB in TV
Torrent verified. Downloaded 8925 times.

DownloadFast Safe Anonymous
movies, software, shows...
  • TV Name: The.Walking.Dead.S07E07.720p.HDTV.DD+5.1.x264-NTb[PRiME]
  • IMDb rating: ---, not rated. please login to rate.
  • Uploader: Simmoncelli

Description

The.Walking.Dead.S07E07.720p.HDTV.DD+5.1.x264-NTb[PRiME]

Info.png

Complete name : The.Walking.Dead.S07E07.720p.HDTV.DD+5.1.x264-NTb[PRiME].mkv
Format : Matroska
Format version : Version 4 / Version 2
File size : 5.68 GiB
Duration : 1 h 2 min
Overall bit rate : 13.0 Mb/s
Encoded date : UTC 2016-12-06 19:47:20
Writing application : mkvmerge v9.3.1 (\'Mask Machine\') 64bit
Writing library : libebml v1.3.4 + libmatroska v1.4.5

Video
ID : 1
Format : AVC
Format/Info : Advanced Video Codec
Format profile : [email protected]
Format settings, CABAC : Yes
Format settings, ReFrames : 9 frames
Codec ID : V_MPEG4/ISO/AVC
Duration : 1 h 2 min
Bit rate : 12.1 Mb/s
Width : 1 280 pixels
Height : 720 pixels
Display aspect ratio : 16:9
Frame rate mode : Constant
Frame rate : 23.976 (24000/1001) FPS
Color space : YUV
Chroma subsampling : 4:2:0
Bit depth : 8 bits
Scan type : Progressive
Bits/(Pixel*Frame) : 0.548
Stream size : 5.29 GiB (93%)
Writing library : x264 core 148 r2705kMod 3f5ed56
Encoding settings : cabac=1 / ref=9 / deblock=1:-3:-3 / analyse=0x3:0x133 / me=umh / subme=10 / psy=1 / fade_compensate=0.00 / psy_rd=1.15:0.00 / mixed_ref=1 / me_range=32 / chroma_me=1 / trellis=2 / 8x8dct=1 / cqm=0 / deadzone=21,11 / fast_pskip=1 / chroma_qp_offset=-2 / threads=12 / lookahead_threads=2 / sliced_threads=0 / nr=0 / decimate=1 / interlaced=0 / bluray_compat=0 / constrained_intra=0 / fgo=0 / bframes=8 / b_pyramid=2 / b_adapt=2 / b_bias=0 / direct=3 / weightb=1 / open_gop=0 / weightp=2 / keyint=250 / keyint_min=23 / scenecut=40 / intra_refresh=0 / rc=crf / mbtree=0 / crf=19.5000 / qcomp=0.60 / qpmin=0 / qpmax=69 / qpstep=4 / ip_ratio=1.30 / pb_ratio=1.20 / aq=3:0.75
Language : English
Default : Yes
Forced : No

Audio
ID : 2
Format : E-AC-3
Format/Info : Audio Coding 3
Format settings, Endianness : Big
Codec ID : A_EAC3
Duration : 1 h 2 min
Bit rate mode : Constant
Bit rate : 640 kb/s
Channel(s) : 6 channels
Channel positions : Front: L C R, Side: L R, LFE
Sampling rate : 48.0 kHz
Frame rate : 187.500 FPS (256 spf)
Compression mode : Lossy
Stream size : 286 MiB (5%)
Language : English
Default : Yes
Forced : No

Text #1
ID : 3
Format : UTF-8
Codec ID : S_TEXT/UTF8
Codec ID/Info : UTF-8 Plain Text
Language : English
Default : No
Forced : No

Text #2
ID : 4
Format : UTF-8
Codec ID : S_TEXT/UTF8
Codec ID/Info : UTF-8 Plain Text
Title : SDH
Language : English
Default : No
Forced : No


Screens.png

Click Image To View Full Size

Ef459.th.jpg
Click To View Screenshot
Click To View Screenshot
Click To View Screenshot

Sharing Widget


Download torrent
5.68 GB
seeders:176
leechers:139
The.Walking.Dead.S07E07.720p.HDTV.DD+5.1.x264-NTb[PRiME]