The.Walking.Dead.S07E07.1080p.WEB-DL.5.1.opus.x265.bluury

seeders: 1720
leechers: 438
updated:
Added by ravarage409.64 MB in TV
Torrent verified. Downloaded 9149 times.

DownloadFast Safe Anonymous
movies, software, shows...
  • TV Name: The.Walking.Dead.S07E07.1080p.WEB-DL.5.1.opus.x265.bluury
  • IMDb rating: ---, not rated. please login to rate.
  • Uploader: ravarage

Description

another fine encode by me hope you like it,download seed and enjoy,due poweroutage I slow down my encoding and got deleyed on weekly episodes sorry

Screens
aFnnP.th.jpg aFRol.th.jpg aFske.th.jpg
Mediainfo

Video
ID : 1
Format : HEVC
Format/Info : High Efficiency Video Coding
Format profile : [email protected]@Main
Codec ID : V_MPEGH/ISO/HEVC
Duration : 1 h 2 min
Bit rate : 776 kb/s
Width : 1 916 pixels
Height : 1 076 pixels
Display aspect ratio : 16:9
Frame rate mode : Constant
Frame rate : 23.976 (24000/1001) FPS
Color space : YUV
Chroma subsampling : 4:2:0
Bit depth : 8 bits
Bits/(Pixel*Frame) : 0.016
Stream size : 349 MiB (85%)
Writing library : x265 1.9+59-9cc9920bf82b:[Windows][GCC 5.3.0][64 bit] 8bit
Encoding settings : wpp / ctu=64 / min-cu-size=8 / max-tu-size=32 / tu-intra-depth=1 / tu-inter-depth=1 / me=3 / subme=5 / merange=57 / no-rect / no-amp / max-merge=2 / temporal-mvp / no-early-skip / rdpenalty=0 / no-tskip / no-tskip-fast / strong-intra-smoothing / no-lossless / no-cu-lossless / no-constrained-intra / no-fast-intra / open-gop / no-temporal-layers / interlace=0 / keyint=250 / min-keyint=23 / scenecut=40 / rc-lookahead=80 / lookahead-slices=6 / bframes=4 / bframe-bias=0 / b-adapt=2 / ref=3 / limit-refs=3 / no-limit-modes / weightp / weightb / aq-mode=3 / qg-size=32 / aq-strength=1.00 / cbqpoffs=0 / crqpoffs=0 / rd=3 / psy-rd=2.00 / rdoq-level=0 / psy-rdoq=0.00 / no-rd-refine / signhide / deblock / sao / no-sao-non-deblock / b-pyramid / cutree / no-intra-refresh / rc=2 / pass / bitrate=776 / qcomp=0.60 / qpmin=0 / qpmax=51 / qpstep=4 / cplxblur=20.0 / qblur=0.5 / ipratio=1.40 / pbratio=1.30
Default : Yes
Forced : No
Color range : Limited
Color primaries : BT.709

Audio
ID : 2
Format : Opus
Codec ID : A_OPUS
Duration : 1 h 2 min
Bit rate : 133 kb/s
Channel(s) : 6 channels
Channel positions : Front: L C R, Rear: L R, LFE
Sampling rate : 48.0 kHz
Frame rate : 50.000 FPS (960 spf)
Compression mode : Lossy
Stream size : 59.8 MiB (15%)
Language : English
Default : Yes
Forced : No

Text #1
ID : 3
Format : UTF-8
Codec ID : S_TEXT/UTF8
Codec ID/Info : UTF-8 Plain Text
Duration : 59 min
Bit rate : 39 b/s
Count of elements : 662
Stream size : 17.0 KiB (0%)
Language : English
Default : No
Forced : No

Text #2
ID : 4
Format : UTF-8
Codec ID : S_TEXT/UTF8
Codec ID/Info : UTF-8 Plain Text
Duration : 1 h 1 min
Bit rate : 43 b/s
Count of elements : 815
Stream size : 19.4 KiB (0%)
Language : English
Default : No
Forced : No

Sharing Widget


Download torrent
409.64 MB
seeders:1720
leechers:438
The.Walking.Dead.S07E07.1080p.WEB-DL.5.1.opus.x265.bluury