The.Usual.Suspects.(1995).1080p.BDRip.Dual.Audio.Org.DD.Hindi.5.1+Eng.5.1.-~{DOOMSDAY}~-

seeders: 370
leechers: 297
updated:
Added by DJ_Doomsday2.73 GB in Movies
Torrent verified. Downloaded 4855 times.

DownloadFast Safe Anonymous
movies, software, shows...
  • Movie: The.Usual.Suspects.(1995).1080p.BDRip.Dual.Audio.Org.DD.Hindi.5.1+Eng.5.1.-~{DOOMSDAY}~-
  • Info hash: 06C990292FEBB54209CE7192BF8A6823DEBD66A8
  • IMDb rating: 9.5 / 10, total 13 votes.  Latest by: enigmatic81, alone790, LexSparrow, mehula2011, mohsinahmad78692
  • Number of files: 14
  • Genres: Movies, Dubbed Movies

Description

wEIU.md.png
43b977eaa36c2d998d64a665a78f087d.png

a636130fb4d90ca36263694bc9a41647.png

The Usual Suspects (1995) 1080p BDRip Dual Audio Org DD Hindi 5.1+Eng 5.1 [email protected]}~-

a8b91d29458671e1ed08f18d7c56fb7a.jpg

Org Untouched Dolby Digital Hindi 5.1 224kbps
Thanks Rockey For Audio

827d7e90ad196f70d7b71f92cc233ae3.png

Complete name : The.Usual.Suspects.(1995).[email protected]}~-.mkv
Format : Matroska
Format version : Version 4 / Version 2
File size : 2.67 GiB
Duration : 1 h 46 min
Overall bit rate mode : Variable
Overall bit rate : 3 607 kb/s
Movie name : The.Usual.Suspects.(1995).[email protected]}~-

Video
ID : 1
Format : AVC
Format/Info : Advanced Video Codec
Format profile : [email protected]
Format settings, CABAC : Yes
Format settings, ReFrames : 5 frames
Codec ID : V_MPEG4/ISO/AVC
Duration : 1 h 46 min
Bit rate mode : Variable
Bit rate : 3 000 kb/s
Maximum bit rate : 62.5 Mb/s
Width : 1 920 pixels
Height : 816 pixels
Display aspect ratio : 2.35:1
Frame rate mode : Constant
Frame rate : 23.976 (24000/1001) FPS
Color space : YUV
Chroma subsampling : 4:2:0
Bit depth : 8 bits
Scan type : Progressive
Bits/(Pixel*Frame) : 0.080
Stream size : 2.22 GiB (83%)
Title : The.Usual.Suspects.(1995).[email protected]}~-
Language : English
Default : Yes
Forced : No

Audio #1
ID : 2
Format : AC-3
Format/Info : Audio Coding 3
Mode extension : CM (complete main)
Format settings, Endianness : Big
Codec ID : A_AC3
Duration : 1 h 46 min
Bit rate mode : Constant
Bit rate : 384 kb/s
Channel(s) : 6 channels
Channel positions : Front: L C R, Side: L R, LFE
Sampling rate : 48.0 kHz
Frame rate : 31.250 FPS (1536 spf)
Compression mode : Lossy
Stream size : 291 MiB (11%)
Title : RiPPER~ L3GEND~ Org Dolby Digital [email protected]~
Language : English
Default : No
Forced : No

Audio #2
ID : 3
Format : AC-3
Format/Info : Audio Coding 3
Mode extension : CM (complete main)
Format settings, Endianness : Big
Codec ID : A_AC3
Duration : 1 h 46 min
Bit rate mode : Constant
Bit rate : 224 kb/s
Channel(s) : 6 channels
Channel positions : Front: L C R, Side: L R, LFE
Sampling rate : 48.0 kHz
Frame rate : 31.250 FPS (1536 spf)
Compression mode : Lossy
Delay relative to video : 28 ms
Stream size : 170 MiB (6%)
Title : RiPPER~ L3GEND~ Org Dolby Digital [email protected]~
Language : Hindi
Default : Yes
Forced : No

Text
ID : 4
Format : UTF-8
Codec ID : S_TEXT/UTF8
Codec ID/Info : UTF-8 Plain Text
Duration : 1 h 38 min
Bit rate : 72 b/s
Count of elements : 1391
Stream size : 52.4 KiB (0%)
Title : L3GEND~ SRT~
Language : English
Default : Yes
Forced : No



Q3KFG70.gif

ac0558fb9cb53d6314e7ee6caa722ff9.th.png06d490417eb0a5623b77ea8d28cf854b.th.png12508c2fb977fca6c2e49349948c3298.th.pngb29b68a294fa576722f2026967fa723f.th.png7388d8dac7e4610d7d94e246ad350478.th.png5937290a2524ed7875193e5e10c89e3a.th.pngc9624a9b0435ecb149135392ad594f63.th.pngc55e94bede83a30834b3f21d03aa2d49.th.png731d339f4d8f1e02adafef0be9b1f492.th.pnge77464ccde43cd1fc35472a4fcf515cf.th.pngdf37e9527f85063b5384e4c8761e6057.th.pngacbf7ec700ef71a5af0d5427a8afba96.th.png

Sharing Widget


Download torrent
2.73 GB
seeders:370
leechers:297
The.Usual.Suspects.(1995).1080p.BDRip.Dual.Audio.Org.DD.Hindi.5.1+Eng.5.1.-~{DOOMSDAY}~-