The.Secret.Life.Of.Pets.(2016).3.Mini.Movies.1080p.BDRip.Org.BD.Eng.5.1.-~{DOOMSDAY}~-

seeders: 233
leechers: 102
updated:
Added by DJ_Doomsday520.95 MB in Movies
Torrent verified. Downloaded 7795 times.

DownloadFast Safe Anonymous
movies, software, shows...
  • Movie: The.Secret.Life.Of.Pets.(2016).3.Mini.Movies.1080p.BDRip.Org.BD.Eng.5.1.-~{DOOMSDAY}~-
  • Info hash: 98429574B52CB810F40C1C61E90454415F9EABF7
  • IMDb rating: 10.0 / 10, total 5 votes.  Latest by: TeamGlory, sanjaykatiyar8259, Black_Adam, aquadirhacks, AlonEShanI
  • Number of files: 18
  • Genres: Movies, Animation

Description

wEIU.md.png
3 MINI MOVIES

The Secret Life Of Pets (2016) 3 Mini Movies 1080p BDRip Org BD Eng 5.1 [email protected]}~-
c6820dda4256d711675e563b7ff29b6f.jpg
The Secret Life Of Pets (2016) Mini Movie (Mower Minions) 1080p BDRip Org BD Eng 5.1 [email protected]}~-

5faf488da5249586eff9fbe9b91d5734.png

Complete name : The.Secret.Life.Of.Pets.(2016).Mini.Movie.(Mower Minions).[email protected]}~-.mkv
Format : Matroska
Format version : Version 4 / Version 2
File size : 166 MiB
Duration : 5 min 2 s
Overall bit rate mode : Variable
Overall bit rate : 4 610 kb/s
Movie name : The.Secret.Life.Of.Pets.(2016).Mini.Movie.(Mower Minions).[email protected]}~-

Video
ID : 1
Format : AVC
Format/Info : Advanced Video Codec
Format profile : [email protected]
Format settings, CABAC : Yes
Format settings, ReFrames : 4 frames
Codec ID : V_MPEG4/ISO/AVC
Duration : 5 min 2 s
Bit rate mode : Variable
Bit rate : 4 192 kb/s
Maximum bit rate : 62.5 Mb/s
Width : 1 920 pixels
Height : 1 036 pixels
Display aspect ratio : 1.85:1
Frame rate mode : Constant
Frame rate : 23.976 (24000/1001) FPS
Color space : YUV
Chroma subsampling : 4:2:0
Bit depth : 8 bits
Scan type : Progressive
Bits/(Pixel*Frame) : 0.088
Stream size : 151 MiB (91%)
Title : The.Secret.Life.Of.Pets.(2016).Mini.Movie.(Mower Minions).[email protected]}~-
Language : English
Default : Yes
Forced : No

Audio
ID : 2
Format : AC-3
Format/Info : Audio Coding 3
Mode extension : CM (complete main)
Format settings, Endianness : Big
Codec ID : A_AC3
Duration : 5 min 2 s
Bit rate mode : Constant
Bit rate : 448 kb/s
Channel(s) : 6 channels
Channel positions : Front: L C R, Side: L R, LFE
Sampling rate : 48.0 kHz
Frame rate : 31.250 FPS (1536 spf)
Compression mode : Lossy
Stream size : 14.6 MiB (9%)
Title : RiPPER~ L3GEND~ Org BluRay [email protected]~
Language : English
Default : Yes
Forced : No

Text
ID : 3
Format : PGS
Muxing mode : zlib
Codec ID : S_HDMV/PGS
Codec ID/Info : Picture based subtitle format used on BDs/HD-DVDs
Duration : 4 min 4 s
Bit rate : 17.0 kb/s
Count of elements : 194
Stream size : 509 KiB (0%)
Title : L3GEND~
Language : English
Default : Yes
Forced : No

Q3KFG70.gif

f418f23ed2054ea8cdc5a016fe56f76a.th.png 3af503a3c687bdb01500db317f3c5fc8.th.png db062f3d65183735cc18397e7d5c6d18.th.png 046f563120568d1d6fbea4d234267421.th.png

Sharing Widget


Download torrent
520.95 MB
seeders:233
leechers:102
The.Secret.Life.Of.Pets.(2016).3.Mini.Movies.1080p.BDRip.Org.BD.Eng.5.1.-~{DOOMSDAY}~-