The.Secret.Life.Of.Pets.(2016).1080p.BDRip.Dual.Audio.Org.BD.Hindi.5.1+Eng.5.1.-~{DOOMSDAY}~-

seeders: 252
leechers: 416
updated:
Added by DJ_Doomsday3.38 GB in Movies
Torrent verified. Downloaded 8017 times.

DownloadFast Safe Anonymous
movies, software, shows...
  • Movie: The.Secret.Life.Of.Pets.(2016).1080p.BDRip.Dual.Audio.Org.BD.Hindi.5.1+Eng.5.1.-~{DOOMSDAY}~-
  • Info hash: 0E9B2CA3E6E0D6F1C03B686137E2EAC379DEDE78
  • IMDb rating: 10.0 / 10, total 5 votes.  Latest by: dx3, DesiZombies, kishansaja, sanjaykatiyar8259, Black_Adam
  • Number of files: 17
  • Genres: Movies, Dubbed Movies

Description

wEIU.md.png
44e805b29e0a200a9b17becbef9d7fb4.png
2020db58e57784687df8a2a7d72e1a6d.png
cac160578beced9885d8235eac72516a.md.jpg
72ef1ea1bf93e5ff3f943da79b068c7b.png

Complete name : The.Secret.Life.Of.Pets.(2016).[email protected]}~-.mkv
Format : Matroska
Format version : Version 4 / Version 2
File size : 3.32 GiB
Duration : 1 h 26 min
Overall bit rate mode : Variable
Overall bit rate : 5 495 kb/s
Movie name : The.Secret.Life.of.Pets.(2016).[email protected]}~-

Video
ID : 1
Format : AVC
Format/Info : Advanced Video Codec
Format profile : [email protected]
Format settings, CABAC : Yes
Format settings, ReFrames : 4 frames
Codec ID : V_MPEG4/ISO/AVC
Duration : 1 h 26 min
Bit rate mode : Variable
Bit rate : 4 192 kb/s
Maximum bit rate : 62.5 Mb/s
Width : 1 920 pixels
Height : 1 036 pixels
Display aspect ratio : 1.85:1
Frame rate mode : Constant
Frame rate : 23.976 (24000/1001) FPS
Color space : YUV
Chroma subsampling : 4:2:0
Bit depth : 8 bits
Scan type : Progressive
Bits/(Pixel*Frame) : 0.088
Stream size : 2.53 GiB (76%)
Title : The.Secret.Life.of.Pets.(2016).[email protected]}~-
Language : English
Default : Yes
Forced : No

Audio #1
ID : 2
Format : AC-3
Format/Info : Audio Coding 3
Mode extension : CM (complete main)
Format settings, Endianness : Big
Codec ID : A_AC3
Duration : 1 h 26 min
Bit rate mode : Constant
Bit rate : 640 kb/s
Channel(s) : 6 channels
Channel positions : Front: L C R, Side: L R, LFE
Sampling rate : 48.0 kHz
Frame rate : 31.250 FPS (1536 spf)
Compression mode : Lossy
Stream size : 396 MiB (12%)
Title : RiPPER~ L3GEND~ Org BluRay [email protected]~
Language : English
Default : No
Forced : No

Audio #2
ID : 3
Format : AC-3
Format/Info : Audio Coding 3
Mode extension : CM (complete main)
Format settings, Endianness : Big
Codec ID : A_AC3
Duration : 1 h 26 min
Bit rate mode : Constant
Bit rate : 640 kb/s
Channel(s) : 6 channels
Channel positions : Front: L C R, Side: L R, LFE
Sampling rate : 48.0 kHz
Frame rate : 31.250 FPS (1536 spf)
Compression mode : Lossy
Stream size : 396 MiB (12%)
Title : RiPPER~ L3GEND~ Org BluRay [email protected]~
Language : Hindi
Default : Yes
Forced : No

Text #1
ID : 4
Format : PGS
Muxing mode : zlib
Codec ID : S_HDMV/PGS
Codec ID/Info : Picture based subtitle format used on BDs/HD-DVDs
Duration : 1 h 24 min
Bit rate : 8 215 b/s
Count of elements : 2526
Stream size : 4.99 MiB (0%)
Title : L3GEND~
Language : Hindi
Default : Yes
Forced : No

Text #2
ID : 5
Format : PGS
Muxing mode : zlib
Codec ID : S_HDMV/PGS
Codec ID/Info : Picture based subtitle format used on BDs/HD-DVDs
Duration : 1 h 26 min
Bit rate : 14.6 kb/s
Count of elements : 3390
Stream size : 8.99 MiB (0%)
Title : L3GEND~
Language : English
Default : No
Forced : No



Q3KFG70.gif

ccb5ffd8c261762870fa603e04671d91.th.png3978d79cfc8539ac37705c1bdbbff5ce.th.png10975dc143d798a17c9ebdefa6a13504.th.png4fd3a3e62cfc0eaebe7bb06c49876433.th.png651eaae21907d8a52167022ac052ac26.th.png3a53dd360343ed21d7bf08b269fa3f10.th.png03699c4fe91497feba885b58920501b2.th.pngbcd788d2b5f2cade09e87a94e9bcf1fc.th.png9a47bdc0a5335d816602bccf2100c3b6.th.png9eecd30262a26837ebfd606e46b23d79.th.png4b4f0fdbc9be1112c8e294dc76c28116.th.png08e36f9c653ebdf0f0db0daddcf0eb47.th.png42fdcf804e64f054a7c30fe8ae5179fa.th.pngc2e9fd0edfb61c6b6e99d2f943761f0f.th.png78cc45f7d9d3dcf223ffe94e2a41df57.th.png

Sharing Widget


Download torrent
3.38 GB
seeders:252
leechers:416
The.Secret.Life.Of.Pets.(2016).1080p.BDRip.Dual.Audio.Org.BD.Hindi.5.1+Eng.5.1.-~{DOOMSDAY}~-