Storks.2016.BluRay.720p.DTS.5.1.x264.dxva-FraMeSToR[PRiME]

seeders: 24
leechers: 313
updated:
Added by Simmoncelli4.30 GB in Movies
Torrent verified. Downloaded 1088 times.

DownloadFast Safe Anonymous
movies, software, shows...
  • Movie: Storks.2016.BluRay.720p.DTS.5.1.x264.dxva-FraMeSToR[PRiME]
  • Info hash: 5FF09AF9150C0EB98903F2FD982E657697571DCA
  • IMDb rating: ---, not rated. please login to rate.
  • Number of files: 5
  • Genres: Movies, Animation

Description

Storks.2016.BluRay.720p.DTS.5.1.x264.dxva-FraMeSToR[PRiME]

ImDb: http://www.imdb.com/title/tt4624424

Info.png

Complete name : Storks.2016.BluRay.720p.DTS.5.1.x264.dxva-FraMeSToR[PRiME].mkv
Format : Matroska
Format version : Version 4 / Version 2
File size : 4.30 GiB
Duration : 1 h 26 min
Overall bit rate : 7 071 kb/s
Movie name : Find more FraMeSToR releases at Beyond-HD.me
Encoded date : UTC 2016-12-11 15:47:59
Writing application : mkvmerge v9.6.0 (\'Slave To Your Mind\') 64bit
Writing library : libebml v1.3.4 + libmatroska v1.4.5

Video
ID : 1
Format : AVC
Format/Info : Advanced Video Codec
Format profile : [email protected]
Format settings, CABAC : Yes
Format settings, ReFrames : 12 frames
Codec ID : V_MPEG4/ISO/AVC
Duration : 1 h 26 min
Bit rate : 5 402 kb/s
Width : 1 280 pixels
Height : 528 pixels
Display aspect ratio : 2.40:1
Frame rate mode : Constant
Frame rate : 23.976 (24000/1001) FPS
Color space : YUV
Chroma subsampling : 4:2:0
Bit depth : 8 bits
Scan type : Progressive
Bits/(Pixel*Frame) : 0.333
Stream size : 3.28 GiB (76%)
Title : FraMeSToR / MPEG-4 AVC Video / 5402 kbps / 23.976 fps / High Profile 4.1
Writing library : x264 core 142 r2431+42 c69a006 tMod [[email protected]:2:0 X86_64]
Encoding settings : cabac=1 / ref=12 / deblock=1:-2:-2 / analyse=0x3:0x113 / me=umh / subme=10 / psy=1 / fade_compensate=0.00 / psy_rd=0.70:0.00 / mixed_ref=1 / me_range=48 / chroma_me=1 / trellis=2 / 8x8dct=1 / cqm=0 / deadzone=6,6 / fast_pskip=0 / chroma_qp_offset=-2 / threads=12 / lookahead_threads=2 / sliced_threads=0 / nr=0 / decimate=1 / interlaced=0 / bluray_compat=0 / constrained_intra=0 / fgo=0 / bframes=9 / b_pyramid=2 / b_adapt=2 / b_bias=0 / direct=3 / weightb=1 / open_gop=0 / weightp=2 / keyint=240 / keyint_min=23 / scenecut=40 / intra_refresh=0 / rc_lookahead=120 / rc=crf / mbtree=0 / crf=15.7000 / qcomp=0.60 / qpmin=0:0:0 / qpmax=35:35:35 / qpstep=4 / vbv_maxrate=30000 / vbv_bufsize=38000 / crf_max=0.0 / nal_hrd=none / filler=0 / ip_ratio=1.40 / pb_ratio=1.30 / aq=4:0.80 / aq-sensitivity=10.00 / aq-factor=1.00:1.00:1.00 / aq2=0 / aq3=0
Language : English
Default : Yes
Forced : No
Color range : Limited
Color primaries : BT.709
Transfer characteristics : BT.709
Matrix coefficients : BT.709

Audio
ID : 2
Format : DTS
Format/Info : Digital Theater Systems
Mode : 16
Format settings, Endianness : Big
Codec ID : A_DTS
Duration : 1 h 26 min
Bit rate mode : Constant
Bit rate : 1 509 kb/s
Channel(s) : 6 channels
Channel positions : Front: L C R, Side: L R, LFE
Sampling rate : 48.0 kHz
Frame rate : 93.750 FPS (512 spf)
Bit depth : 16 bits
Compression mode : Lossy
Stream size : 939 MiB (21%)
Title : FraMeSToR / DTS / 5.1 / 48 kHz / 1509 kbps / 16-bit
Language : English
Default : Yes
Forced : No

Text #1
ID : 3
Format : PGS
Codec ID : S_HDMV/PGS
Codec ID/Info : Picture based subtitle format used on BDs/HD-DVDs
Duration : 1 h 26 min
Bit rate : 50.3 kb/s
Count of elements : 3444
Stream size : 31.1 MiB (1%)
Title : English-SDH
Language : English
Default : No
Forced : No

Text #2
ID : 4
Format : PGS
Codec ID : S_HDMV/PGS
Codec ID/Info : Picture based subtitle format used on BDs/HD-DVDs
Duration : 1 h 26 min
Bit rate : 30.4 kb/s
Count of elements : 2432
Stream size : 18.8 MiB (0%)
Title : French
Language : French
Default : No
Forced : No

Text #3
ID : 5
Format : PGS
Codec ID : S_HDMV/PGS
Codec ID/Info : Picture based subtitle format used on BDs/HD-DVDs
Duration : 1 h 26 min
Bit rate : 37.6 kb/s
Count of elements : 2782
Stream size : 23.3 MiB (1%)
Title : Spanish-Latin American
Language : Spanish
Default : No
Forced : No

Text #4
ID : 6
Format : PGS
Codec ID : S_HDMV/PGS
Codec ID/Info : Picture based subtitle format used on BDs/HD-DVDs
Duration : 1 h 26 min
Bit rate : 39.5 kb/s
Count of elements : 2794
Stream size : 24.4 MiB (1%)
Title : Portuguese-Brazilian
Language : Portuguese
Default : No
Forced : No

Menu
00:00:00.000 : :Chapter 01
00:10:26.500 : :Chapter 02
00:20:35.734 : :Chapter 03
00:30:24.405 : :Chapter 04
00:39:30.034 : :Chapter 05
00:50:24.479 : :Chapter 06
00:59:24.435 : :Chapter 07
01:07:06.022 : :Chapter 08
01:14:28.297 : :Chapter 09
01:20:53.598 : :Chapter 10


Screens.png

Click Image To View Full Size

N6qxh.th.jpg
Click To View Screenshot
Click To View Screenshot
Click To View Screenshot

Sharing Widget


Download torrent
4.30 GB
seeders:24
leechers:313
Storks.2016.BluRay.720p.DTS.5.1.x264.dxva-FraMeSToR[PRiME]