Storks.2016.3D.1080p.BluRay.x264-SPRiNTER[PRiME]

seeders: 353
leechers: 1038
updated:
Added by Simmoncelli4.41 GB in Movies
Torrent verified. Downloaded 4079 times.

DownloadFast Safe Anonymous
movies, software, shows...
  • Movie: Storks.2016.3D.1080p.BluRay.x264-SPRiNTER[PRiME]
  • Info hash: A38660057A02265EB434712139F3E8C881AA1BC5
  • IMDb rating: ---, not rated. please login to rate.
  • Number of files: 7
  • Genres: Movies, Animation

Description

Storks.2016.3D.1080p.BluRay.x264-SPRiNTER[PRiME]

ImDb: http://www.imdb.com/title/tt4624424

Info.png

Complete name : Storks.2016.3D.1080p.BluRay.x264-SPRiNTER[PRiME].mkv
Format : Matroska
Format version : Version 4 / Version 2
File size : 4.37 GiB
Duration : 1 h 26 min
Overall bit rate : 7 198 kb/s
Encoded date : UTC 2016-12-12 04:25:33
Writing application : mkvmerge v8.3.0 (\'Over the Horizon\') 64bit
Writing library : libebml v1.3.1 + libmatroska v1.4.2

Video
ID : 1
Format : AVC
Format/Info : Advanced Video Codec
Format profile : [email protected]
Format settings, CABAC : Yes
Format settings, ReFrames : 5 frames
Codec ID : V_MPEG4/ISO/AVC
Duration : 1 h 26 min
Bit rate : 5 688 kb/s
Width : 1 920 pixels
Height : 808 pixels
Display aspect ratio : 2.40:1
Frame rate mode : Constant
Frame rate : 23.976 FPS
Color space : YUV
Chroma subsampling : 4:2:0
Bit depth : 8 bits
Scan type : Progressive
Bits/(Pixel*Frame) : 0.153
Stream size : 3.45 GiB (79%)
Writing library : x264 core 148 r2705 3f5ed56
Encoding settings : cabac=1 / ref=5 / deblock=1:0:0 / analyse=0x3:0x133 / me=umh / subme=7 / psy=1 / psy_rd=1.00:0.00 / mixed_ref=1 / me_range=16 / chroma_me=1 / trellis=1 / 8x8dct=1 / cqm=0 / deadzone=21,11 / fast_pskip=0 / chroma_qp_offset=-2 / threads=24 / lookahead_threads=4 / sliced_threads=0 / nr=0 / decimate=1 / interlaced=0 / bluray_compat=0 / constrained_intra=0 / bframes=3 / b_pyramid=2 / b_adapt=1 / b_bias=0 / direct=1 / weightb=1 / open_gop=0 / weightp=2 / keyint=250 / keyint_min=23 / scenecut=40 / intra_refresh=0 / rc_lookahead=40 / rc=2pass / mbtree=1 / bitrate=5688 / ratetol=1.0 / qcomp=0.60 / qpmin=0 / qpmax=69 / qpstep=4 / cplxblur=20.0 / qblur=0.5 / ip_ratio=1.40 / aq=1:1.00
Language : English
Default : Yes
Forced : No

Audio
ID : 2
Format : DTS
Format/Info : Digital Theater Systems
Mode : 16
Format settings, Endianness : Big
Codec ID : A_DTS
Duration : 1 h 26 min
Bit rate mode : Constant
Bit rate : 1 509 kb/s
Channel(s) : 6 channels
Channel positions : Front: L C R, Side: L R, LFE
Sampling rate : 48.0 kHz
Frame rate : 93.750 FPS (512 spf)
Bit depth : 24 bits
Compression mode : Lossy
Stream size : 939 MiB (21%)
Language : English
Default : Yes
Forced : No

Menu
00:00:00.000 : en:00:00:00.000
00:10:26.501 : en:00:10:26.501
00:20:35.734 : en:00:20:35.734
00:30:24.406 : en:00:30:24.406
00:39:30.034 : en:00:39:30.034
00:50:24.480 : en:00:50:24.480
00:59:24.436 : en:00:59:24.436
01:07:06.022 : en:01:07:06.022
01:14:28.297 : en:01:14:28.297
01:20:53.599 : en:01:20:53.599


Screens.png

Click Image To View Full Size

NXYbh.th.jpg
Click To View Screenshot
Click To View Screenshot
Click To View Screenshot

Sharing Widget


Download torrent
4.41 GB
seeders:353
leechers:1038
Storks.2016.3D.1080p.BluRay.x264-SPRiNTER[PRiME]