Stealth.(2005).1080p.BDRip.Multi.Language.[Hindi.Tamil.Telugu.Eng.5.1].-~{DOOMSDAY}~-

seeders: 220
leechers: 257
updated:
Added by DJ_Doomsday4.03 GB in Movies
Torrent verified. Downloaded 4742 times.

DownloadFast Safe Anonymous
movies, software, shows...
  • Movie: Stealth.(2005).1080p.BDRip.Multi.Language.[Hindi.Tamil.Telugu.Eng.5.1].-~{DOOMSDAY}~-
  • Info hash: 0E3D22CD8E1D949B1FDF4B372A31B4B8213B33BF
  • IMDb rating: 10.0 / 10, total 7 votes.  Latest by: rohit98, MiiMARATHI, sanjaykatiyar8259, JKPathan, Black_Adam
  • Number of files: 11
  • Genres: Movies, Dubbed Movies

Description

wEIU.md.png
c0dc3395707c5c54f9c9de08aa61e55b.md.png

Stealth (2005) 1080p BDRip Org DD Multi Language [Hindi.Tamil.Telugu.Eng.5.1] [email protected]}~-


197df974dd528b88e8e86b38dc204366.jpg


:::Org Untouched Dolby Digital [Hindi.Tamil.Telugu] 5.1 448kbps:::
:::Biggg Thanksss BitTwo Bhai DvD9 Audio:::

fe705f64ab51e11325c0104ce2b444ff.png

Complete name : Stealth.(2005).1080p.BDRip.Org.DD.Multi.Language.[Hindi.Tamil.Telugu.Eng.5.1].[email protected]}~-.mkv
Format : Matroska
Format version : Version 4 / Version 2
File size : 3.98 GiB
Duration : 1 h 55 min
Overall bit rate mode : Variable
Overall bit rate : 4 920 kb/s
Movie name : Stealth.(2005).1080p.BDRip.Org.DD.Multi.Language.[Hindi.Tamil.Telugu.Eng.5.1].[email protected]}~-

Video
ID : 1
Format : AVC
Format/Info : Advanced Video Codec
Format profile : [email protected]
Format settings, CABAC : Yes
Format settings, ReFrames : 4 frames
Codec ID : V_MPEG4/ISO/AVC
Duration : 1 h 55 min
Bit rate mode : Variable
Bit rate : 3 000 kb/s
Maximum bit rate : 62.5 Mb/s
Width : 1 920 pixels
Height : 800 pixels
Display aspect ratio : 2.40:1
Frame rate mode : Constant
Frame rate : 25.000 FPS
Original frame rate : 23.976 (24000/1001) FPS
Color space : YUV
Chroma subsampling : 4:2:0
Bit depth : 8 bits
Scan type : Progressive
Bits/(Pixel*Frame) : 0.078
Stream size : 2.53 GiB (64%)
Title : Stealth.(2005).1080p.BDRip.Multi.Language.[Hindi.Tamil.Telugu.Eng.5.1].[email protected]}~-
Language : English
Default : Yes
Forced : No

Audio #1
ID : 2
Format : AC-3
Format/Info : Audio Coding 3
Mode extension : CM (complete main)
Format settings, Endianness : Big
Codec ID : A_AC3
Duration : 1 h 55 min
Bit rate mode : Constant
Bit rate : 448 kb/s
Channel(s) : 6 channels
Channel positions : Front: L C R, Side: L R, LFE
Sampling rate : 48.0 kHz
Frame rate : 31.250 FPS (1536 spf)
Compression mode : Lossy
Stream size : 371 MiB (9%)
Title : RiPPER~ L3GEND~ Org Dolby Digital [email protected]~
Language : English
Default : No
Forced : No

Audio #2
ID : 3
Format : AC-3
Format/Info : Audio Coding 3
Mode extension : CM (complete main)
Format settings, Endianness : Big
Codec ID : A_AC3
Duration : 1 h 55 min
Bit rate mode : Constant
Bit rate : 448 kb/s
Channel(s) : 6 channels
Channel positions : Front: L C R, Side: L R, LFE
Sampling rate : 48.0 kHz
Frame rate : 31.250 FPS (1536 spf)
Compression mode : Lossy
Stream size : 371 MiB (9%)
Title : RiPPER~ L3GEND~ Org Dolby Digital [email protected]~
Language : Hindi
Default : Yes
Forced : No

Audio #3
ID : 4
Format : AC-3
Format/Info : Audio Coding 3
Mode extension : CM (complete main)
Format settings, Endianness : Big
Codec ID : A_AC3
Duration : 1 h 55 min
Bit rate mode : Constant
Bit rate : 448 kb/s
Channel(s) : 6 channels
Channel positions : Front: L C R, Side: L R, LFE
Sampling rate : 48.0 kHz
Frame rate : 31.250 FPS (1536 spf)
Compression mode : Lossy
Stream size : 371 MiB (9%)
Title : RiPPER~ L3GEND~ Org Dolby Digital [email protected]~
Language : Tamil
Default : No
Forced : No

Audio #4
ID : 5
Format : AC-3
Format/Info : Audio Coding 3
Mode extension : CM (complete main)
Format settings, Endianness : Big
Codec ID : A_AC3
Duration : 1 h 55 min
Bit rate mode : Constant
Bit rate : 448 kb/s
Channel(s) : 6 channels
Channel positions : Front: L C R, Side: L R, LFE
Sampling rate : 48.0 kHz
Frame rate : 31.250 FPS (1536 spf)
Compression mode : Lossy
Stream size : 371 MiB (9%)
Title : RiPPER~ L3GEND~ Org Dolby Digital [email protected]~
Language : Telugu
Default : No
Forced : No

Text
ID : 6
Format : UTF-8
Codec ID : S_TEXT/UTF8
Codec ID/Info : UTF-8 Plain Text
Duration : 1 h 46 min
Bit rate : 54 b/s
Count of elements : 1115
Stream size : 42.7 KiB (0%)
Title : ~L3GEND~ SRT~
Language : English
Default : Yes
Forced : No



Q3KFG70.gif

dc0acc65c983bac30b73f647066f2174.th.png1acd05466511d689712e5085349dce69.th.png583eae404c1c54d90c7c7e72b9c37f2a.th.pnge246ed5b2a657e0290b3db911d844914.th.pngefd09e39ec4705393cc93667c1eb6b20.th.png1a6d29618050fdeb748049a937b33ddc.th.pngf6861db45db0a5f68f51d8c44fcb6853.th.png756205abaed17437cc0b1074563a27a8.th.png6dab95f98a93f812874752a14f1fe972.th.png

Sharing Widget


Download torrent
4.03 GB
seeders:220
leechers:257
Stealth.(2005).1080p.BDRip.Multi.Language.[Hindi.Tamil.Telugu.Eng.5.1].-~{DOOMSDAY}~-