Robert Rauschenberg - Pop Art Pioneer

seeders: 0
leechers: 0
updated:
Added by ElsonRoa0.99 GB in TV
Torrent verified. Downloaded 5394 times.

DownloadFast Safe Anonymous
movies, software, shows...
  • TV Name: Robert Rauschenberg - Pop Art Pioneer
  • IMDb rating: ---, not rated. please login to rate.
  • Uploader: ElsonRoa

Description

Robert Rauschenberg - Pop Art Pioneer

Alistair Sooke celebrates the protean genius of one of America's most prolific and original artists, Robert Rauschenberg. Fearless and influential, he blazed a trail for artists in the second half of the 20th century, and yet his work is rarely seen here in the UK. That is about to change with a major retrospective at Tate Modern in December 2016.

Rauschenberg was the first artist to win the Golden Lion at the Venice Biennale in 1964, creating a crucial bridge between the abstract expressionists of the 50s and the pop artists who emerged in the 60s.

Famous for his 'combines' that elevated the rich junk of life to the status of high art, he continued to work right up to his death in 2008, collaborating with dancers, scientists and social activists on a startlingly broad array of projects.

Presenter Alastair Sooke travels to the east coast of the USA to talk to those closest to Rauschenberg to reveal the boundless curiosity and restless experimentation that kept him engaged till the very end of his six-decade career.

(with soft English subtitles)

First broadcast: 10 December 2016
Duration: 1 hour

8327b14d899e0666131cc1309c93b15b.md.jpg

Media info:

General
Format : MPEG-4
Format profile : Base Media
Codec ID : isom (isom/iso2/avc1/mp41)
File size : 1 010 MiB
Duration : 59mn 8s
Overall bit rate mode : Variable
Overall bit rate : 2 389 Kbps
Writing application : Lavf57.25.100


Video
ID : 1
Format : AVC
Format/Info : Advanced Video Codec
Format profile : [email protected]
Format settings, CABAC : Yes
Format settings, ReFrames : 2 frames
Codec ID : avc1
Codec ID/Info : Advanced Video Coding
Duration : 59mn 8s
Bit rate mode : Variable
Bit rate : 2 290 Kbps
Maximum bit rate : 3 500 Kbps
Width : 1 280 pixels
Height : 720 pixels
Display aspect ratio : 16:9
Frame rate mode : Variable
Frame rate : 25.000 fps
Minimum frame rate : 4.167 fps
Maximum frame rate : 25.000 fps
Color space : YUV
Chroma subsampling : 4:2:0
Bit depth : 8 bits
Scan type : Progressive
Bits/(Pixel*Frame) : 0.099
Stream size : 969 MiB (96%)

Audio
ID : 2
Format : AAC
Format/Info : Advanced Audio Codec
Format profile : LC
Codec ID : 40
Duration : 59mn 7s
Bit rate mode : Constant
Bit rate : 93.5 Kbps
Channel(s) : 2 channels
Channel positions : Front: L R
Sampling rate : 48.0 KHz
Frame rate : 46.875 fps (1024 spf)
Compression mode : Lossy
Stream size : 39.5 MiB (4%)

Sharing Widget


Download torrent
0.99 GB
seeders:0
leechers:0
Robert Rauschenberg - Pop Art Pioneer