Redline.(2007).1080p.BDRip.Dual.Audio.Org.DD.Hindi.5.1+Eng.5.1.-~{DOOMSDAY}~-

seeders: 343
leechers: 724
updated:
Added by DJ_Doomsday2.60 GB in Movies
Torrent verified. Downloaded 2948 times.

DownloadFast Safe Anonymous
movies, software, shows...
  • Movie: Redline.(2007).1080p.BDRip.Dual.Audio.Org.DD.Hindi.5.1+Eng.5.1.-~{DOOMSDAY}~-
  • Info hash: B8789C1FD3B96CB28508821866AA43DF09C15DC1
  • IMDb rating: 9.3 / 10, total 9 votes.  Latest by: mehula2011, LexSparrow, mohsinahmad78692, rohit98, sanjaykatiyar8259
  • Number of files: 15
  • Genres: Movies, Dubbed Movies

Description

wEIU.md.png
2073adcad938610372f6c5e6720c5895.md.png

Redline (2007) 1080p BDRip Dual Audio Org DD Hindi 5.1+Eng 5.1 [email protected]}~-


a9f898460ac82854813a24e0da6f82a4.md.jpg

:::Org Untouched Hindi Dolby Digital 5.1 448kbps:::
:::Thanku BitTwo Bhai:::

1d4729e9e3bc3f8efa62a8e7cc6326ec.png

Complete name : Redline.(2007).[email protected]}~-.mkv
Format : Matroska
Format version : Version 4 / Version 2
File size : 2.52 GiB
Duration : 1 h 29 min
Overall bit rate mode : Variable
Overall bit rate : 4 025 kb/s
Movie name : Redline.(2007).[email protected]}~-

Video
ID : 1
Format : AVC
Format/Info : Advanced Video Codec
Format profile : [email protected]
Format settings, CABAC : Yes
Format settings, ReFrames : 4 frames
Codec ID : V_MPEG4/ISO/AVC
Duration : 1 h 29 min
Bit rate mode : Variable
Bit rate : 3 000 kb/s
Maximum bit rate : 62.5 Mb/s
Width : 1 920 pixels
Height : 800 pixels
Display aspect ratio : 2.40:1
Frame rate mode : Constant
Frame rate : 25.000 FPS
Original frame rate : 23.976 (24000/1001) FPS
Color space : YUV
Chroma subsampling : 4:2:0
Bit depth : 8 bits
Scan type : Progressive
Bits/(Pixel*Frame) : 0.078
Stream size : 1.95 GiB (78%)
Title : Redline.(2007).[email protected]}~-
Language : English
Default : Yes
Forced : Yes

Audio #1
ID : 2
Format : AC-3
Format/Info : Audio Coding 3
Mode extension : CM (complete main)
Format settings, Endianness : Big
Codec ID : A_AC3
Duration : 1 h 29 min
Bit rate mode : Constant
Bit rate : 448 kb/s
Channel(s) : 6 channels
Channel positions : Front: L C R, Side: L R, LFE
Sampling rate : 48.0 kHz
Frame rate : 31.250 FPS (1536 spf)
Compression mode : Lossy
Stream size : 287 MiB (11%)
Title : RiPPER~ L3GEND~Org Dolby Digital [email protected]~
Language : English
Default : No
Forced : No

Audio #2
ID : 3
Format : AC-3
Format/Info : Audio Coding 3
Mode extension : CM (complete main)
Format settings, Endianness : Big
Codec ID : A_AC3
Duration : 1 h 29 min
Bit rate mode : Constant
Bit rate : 448 kb/s
Channel(s) : 6 channels
Channel positions : Front: L C R, Side: L R, LFE
Sampling rate : 48.0 kHz
Frame rate : 31.250 FPS (1536 spf)
Compression mode : Lossy
Stream size : 287 MiB (11%)
Title : RiPPER~ L3GEND~Org Dolby Digital [email protected]~
Language : Hindi
Default : Yes
Forced : No

Text
ID : 4
Format : UTF-8
Codec ID : S_TEXT/UTF8
Codec ID/Info : UTF-8 Plain Text
Duration : 1 h 29 min
Bit rate : 74 b/s
Count of elements : 1288
Stream size : 48.8 KiB (0%)
Title : L3GEND~ SRT~
Language : English
Default : Yes
Forced : No




Q3KFG70.gif

a00affcec1c4241af03625e19f8a9dac.th.png89c5f310ff8b1f06dea6cab9cad7cae5.th.png7f8069d72fb5df66ffbe4d5a346a5ea4.th.png6b94f427a0d2484f7f3c0a2edb35e2c6.th.png9b55e4b002b3b9b522b99f4ba7c6c86f.th.pngfb7374c16af7e38593ab1322940225fb.th.pngbd70920643886fbf60054e39514bd367.th.pngcb9acf3ff6cf75d2a97ca450b9892fc3.th.png3a832b00edca46c7b9d0f8e015f6682c.th.pngee77f7e92dbadda30538dcbfb25087f9.th.png614509700c66ee5abc98eb56ad2797be.th.pngdc999b6cb0532e3e17372ad4bb2acfec.th.png

Sharing Widget


Download torrent
2.60 GB
seeders:343
leechers:724
Redline.(2007).1080p.BDRip.Dual.Audio.Org.DD.Hindi.5.1+Eng.5.1.-~{DOOMSDAY}~-