Quantico S02E06 (1080p Webrip x265 10bit AAC 5.1 Qman) [UTR]

seeders: 58
leechers: 46
updated:
Added by UTR424.91 MB in TV
Torrent verified. Downloaded 1468 times.

DownloadFast Safe Anonymous
movies, software, shows...
  • TV Name: Quantico S02E06 (1080p Webrip x265 10bit AAC 5.1 Qman) [UTR]
  • IMDb rating: ---, not rated. please login to rate.
  • Uploader: UTR

Description

gv8mpWw.png
Media Info


General
Format : Matroska
Format version : Version 4 / Version 2
File size : 425 MiB
Duration : 42 min 58 s
Overall bit rate : 1 382 kb/s
Encoded date : UTC 2016-11-14 01:17:48
Writing application : mkvmerge v9.5.0 (\'Quiet Fire\') 64bit
Writing library : libebml v1.3.4 + libmatroska v1.4.5

Video
ID : 1
Format : HEVC
Format/Info : High Efficiency Video Coding
Format profile : Main [email protected]@Main
Codec ID : V_MPEGH/ISO/HEVC
Duration : 42 min 58 s
Bit rate : 1 188 kb/s
Width : 1 920 pixels
Height : 1 080 pixels
Display aspect ratio : 16:9
Frame rate mode : Constant
Frame rate : 23.976 (24000/1001) FPS
Color space : YUV
Chroma subsampling : 4:2:0
Bit depth : 10 bits
Bits/(Pixel*Frame) : 0.024
Stream size : 365 MiB (86%)
Writing library : x265 2.1+45-8b9d1cc0d495:[Windows][GCC 6.2.0][64 bit] 10bit
Encoding settings : wpp / ctu=64 / min-cu-size=8 / max-tu-size=32 / tu-intra-depth=1 / tu-inter-depth=1 / me=3 / subme=2 / merange=57 / no-rect / no-amp / max-merge=2 / temporal-mvp / no-early-skip / rskip / rdpenalty=0 / no-tskip / no-tskip-fast / no-strong-intra-smoothing / no-lossless / no-cu-lossless / no-constrained-intra / no-fast-intra / open-gop / no-temporal-layers / interlace=0 / keyint=250 / min-keyint=23 / scenecut=40 / scenecut-bias=0.05 / rc-lookahead=20 / lookahead-slices=6 / bframes=4 / bframe-bias=0 / b-adapt=2 / ref=3 / limit-refs=3 / no-limit-modes / weightp / no-weightb / aq-mode=3 / qg-size=32 / aq-strength=1.00 / cbqpoffs=0 / crqpoffs=0 / rd=3 / psy-rd=0.35 / rdoq-level=1 / psy-rdoq=0.00 / log2-max-poc-lsb=8 / limit-tu=0 / no-rd-refine / signhide / deblock=-1:-1 / sao / no-sao-non-deblock / b-pyramid / cutree / no-intra-refresh / rc=crf / crf=24.0 / qcomp=0.60 / qpmin=0 / qpmax=69 / qpstep=4 / ipratio=1.40 / pbratio=1.30
Language : English
Default : Yes
Forced : No

Audio
ID : 2
Format : AAC
Format/Info : Advanced Audio Codec
Format profile : HE-AAC / LC
Codec ID : A_AAC
Duration : 42 min 58 s
Bit rate : 192 kb/s
Channel(s) : 6 channels
Channel positions : Front: L C R, Side: L R, LFE
Sampling rate : 48.0 kHz / 24.0 kHz
Frame rate : 23.438 FPS (1024 spf)
Compression mode : Lossy
Delay relative to video : 34 ms
Stream size : 59.0 MiB (14%)
Language : English
Default : Yes
Forced : No

Subtitles
ID : 3
Format : UTF-8
Codec ID : S_TEXT/UTF8
Codec ID/Info : UTF-8 Plain Text
Duration : 42 min 0 s
Bit rate : 105 b/s
Count of elements : 982
Stream size : 32.4 KiB (0%)
Language : English
Default : Yes
Forced : No

Sources
mekryXn.jpgsmw6vvW.jpgVhG34Iq.jpgjWD3ZSB.jpg

Sharing Widget


Download torrent
424.91 MB
seeders:58
leechers:46
Quantico S02E06 (1080p Webrip x265 10bit AAC 5.1 Qman) [UTR]