Please.Like.Me.S04E05.Burrito.Bowl.1080p.WEB.DL.AAC2.0.H.264-KAZ.mkv

seeders: 0
leechers: 0
updated:
Added by aup959.95 MB in TV
Torrent verified. Downloaded 9780 times.

DownloadFast Safe Anonymous
movies, software, shows...
  • TV Name: Please.Like.Me.S04E05.Burrito.Bowl.1080p.WEB.DL.AAC2.0.H.264-KAZ.mkv
  • IMDb rating: ---, not rated. please login to rate.
  • Uploader: aup

Description

Released 07 December 2016
mPdV7hD.jpg

Josh reconnects with his first boyfriend, Geoffrey, who shows Josh some surprising new tricks. As Dad gets excited about a low-carb diet, Ella has a health scare which leads to a checkup from an extremely hot doctor, which makes Tom jealous.

General
Unique ID : 184517328275388265635644258139270532072 (0x8AD0BEA9CBEBC256B82B4B3A238BCBE8)
Complete name : Please.Like.Me.S04E05.Burrito.Bowl.1080p.WEB.DL.AAC2.0.H.264-KAZ.mkv
Format : Matroska
Format version : Version 4 / Version 2
File size : 960 MiB
Duration : 25 min 2 s
Overall bit rate : 5 361 kb/s
Encoded date : UTC 2016-12-10 08:13:06
Writing application : mkvmerge v8.3.0 ('Over the Horizon') 64bit
Writing library : libebml v1.3.1 + libmatroska v1.4.2
IsTruncated : Yes

Video
ID : 1
Format : AVC
Format/Info : Advanced Video Codec
Format profile : [email protected]
Format settings, CABAC : Yes
Format settings, ReFrames : 4 frames
Codec ID : V_MPEG4/ISO/AVC
Duration : 25 min 2 s
Bit rate : 5 203 kb/s
Width : 1 912 pixels
Height : 1 072 pixels
Display aspect ratio : 16:9
Frame rate mode : Constant
Frame rate : 25.000 FPS
Color space : YUV
Chroma subsampling : 4:2:0
Bit depth : 8 bits
Scan type : Progressive
Bits/(Pixel*Frame) : 0.102
Stream size : 932 MiB (97%)
Language : English
Default : Yes
Forced : No
Color range : Limited
Color primaries : BT.709
Transfer characteristics : BT.709
Matrix coefficients : BT.709

Audio
ID : 2
Format : AAC
Format/Info : Advanced Audio Codec
Format profile : LC
Codec ID : A_AAC
Duration : 25 min 2 s
Bit rate : 156 kb/s
Channel(s) : 2 channels
Channel positions : Front: L R
Sampling rate : 48.0 kHz
Frame rate : 46.875 FPS (1024 spf)
Compression mode : Lossy
Stream size : 27.9 MiB (3%)
Language : English
Default : Yes
Forced : No

-RnC

Sharing Widget


Download torrent
959.95 MB
seeders:0
leechers:0
Please.Like.Me.S04E05.Burrito.Bowl.1080p.WEB.DL.AAC2.0.H.264-KAZ.mkv