Piper.(2016).1080p.BDRip.Eng.5.1.-~{DOOMSDAY}~-

seeders: 423
leechers: 215
updated:
Added by DJ_Doomsday244.14 MB in Movies
Torrent verified. Downloaded 2242 times.

DownloadFast Safe Anonymous
movies, software, shows...
  • Movie: Piper.(2016).1080p.BDRip.Eng.5.1.-~{DOOMSDAY}~-
  • Info hash: 8CE64856980CD4D252B50839B094EB39E0CD8B91
  • IMDb rating: 10.0 / 10, total 8 votes.  Latest by: aman18, mohsinahmad78692, suman5, skrrajput, mehula2011
  • Number of files: 8
  • Genres: Movies, Animation

Description

wEIU.md.png
313a66e01bf00561288ef5992d4d7acc.md.jpg

Disney_Pixar_Piper.(2016).1080p.BDRip.Org.BD.Eng.5.1.[email protected]}~-

6714e9004906b12c6b6ec4eddca84e64.md.png
f152f79796da8be178560d63bf72d5c6.png

Complete name                            : Piper.(2016).[email protected]}~-.mkv
Format : Matroska
Format version : Version 4 / Version 2
File size : 211 MiB
Duration : 6 min 5 s
Overall bit rate mode : Variable
Overall bit rate : 4 830 kb/s
Movie name : Piper.(2016).[email protected]}~-

Video
ID : 1
Format : AVC
Format/Info : Advanced Video Codec
Format profile : [email protected]
Format settings, CABAC : Yes
Format settings, ReFrames : 4 frames
Codec ID : V_MPEG4/ISO/AVC
Duration : 6 min 5 s
Bit rate mode : Variable
Bit rate : 4 192 kb/s
Maximum bit rate : 62.5 Mb/s
Width : 1 920 pixels
Height : 1 080 pixels
Display aspect ratio : 16:9
Frame rate mode : Constant
Frame rate : 23.976 (24000/1001) FPS
Color space : YUV
Chroma subsampling : 4:2:0
Bit depth : 8 bits
Scan type : Progressive
Bits/(Pixel*Frame) : 0.084
Stream size : 182 MiB (87%)
Title : Piper.(2016).[email protected]}~-
Language : English
Default : Yes
Forced : No

Audio
ID : 2
Format : AC-3
Format/Info : Audio Coding 3
Mode extension : CM (complete main)
Format settings, Endianness : Big
Codec ID : A_AC3
Duration : 6 min 5 s
Bit rate mode : Constant
Bit rate : 640 kb/s
Channel(s) : 6 channels
Channel positions : Front: L C R, Side: L R, LFE
Sampling rate : 48.0 kHz
Frame rate : 31.250 FPS (1536 spf)
Compression mode : Lossy
Stream size : 27.9 MiB (13%)
Title : RiPPER~ L3GEND~ Org BluRay 5.1 @ 640kbps~
Language : English
Default : Yes
Forced : No

Text
ID : 3
Format : PGS
Muxing mode : zlib
Codec ID : S_HDMV/PGS
Codec ID/Info : Picture based subtitle format used on BDs/HD-DVDs
Duration : 5 min 36 s
Bit rate : 2 156 b/s
Count of elements : 46
Stream size : 88.6 KiB (0%)
Title : ~L3GEND~
Language : English
Default : Yes
Forced : No



Q3KFG70.gif
a3f722808cc3bf3a10de41b91367f36b.th.pngb0c5774d487b838a051f1fe42dc024ca.th.png4191063827614425785c985f4612eba4.th.png02ca3c91bb8be11f5cbfc64e8a6b08f1.th.png86c7f5f039421bc5d11cd15d7c0e2d84.th.pngdf255e2dee9ec2b197e334b525d6181d.th.png

Sharing Widget


Download torrent
244.14 MB
seeders:423
leechers:215
Piper.(2016).1080p.BDRip.Eng.5.1.-~{DOOMSDAY}~-