Percy Jackson And The Olympians The Lightning Thief 2010 BluRay 720p 1080p x264 AC3 HDiY

seeders: 0
leechers: 0
updated:
Added by SG160319948.74 GB in Movies
Torrent verified. Downloaded 6458 times.

DownloadFast Safe Anonymous
movies, software, shows...
  • Movie: Percy Jackson And The Olympians The Lightning Thief 2010 BluRay 720p 1080p x264 AC3 HDiY
  • Info hash: 5F324C15635E6634524BA11BAE7CA4236B8D0A19
  • IMDb rating: ---, not rated. please login to rate.
  • Number of files: 13
  • Genres: Movies, Adventure

Description

percy_jackson_and_the_olympians_the_lightning_thief_ver3.jpg

Format : Matroska
File size : 2.18 GiB
Duration : 1h 57mn
Overall bit rate : 2 652 Kbps
Movie name : Recoded By HDiY Team
Encoded date : UTC 2010-06-15 17:51:09
Writing application : mkvmerge v3.4.0 ('Rapunzel') ±àÒëÓÚ May 15 2010 09:38:20
Writing library : libebml v0.8.0 + libmatroska v0.9.0
Video #1
ID : 1
Format : AVC
Format/Info : Advanced Video Codec
Format profile : [email protected]
Format settings, CABAC : Yes
Format settings, ReFrames : 6 frames
Muxing mode : Container [email protected]
Codec ID : V_MPEG4/ISO/AVC
Duration : 1h 57mn
Bit rate : 2 151 Kbps
Nominal bit rate : 2 202 Kbps
Width : 1 280 pixels
Height : 720 pixels

Display aspect ratio : 16:9
Frame rate : 24.000 fps
Resolution : 8 bits
Colorimetry : 4:2:0
Scan type : Progressive
Bits/(Pixel*Frame) : 0.097
Stream size : 1.77 GiB (81%)
Title : [email protected]
Writing library : x264 core 80 r1376M 3feaec2
Language : English
Audio #2
ID : 2
Format : AC-3
Format/Info : Audio Coding 3
Codec ID : A_AC3
Duration : 1h 57mn
Bit rate mode : Constant
Bit rate : 448 Kbps
Channel(s) : 6 channels
Channel positions : Front: L C R, Surround: L R, LFE
Sampling rate : 48.0 KHz
Stream size : 377 MiB (17%)
Title : English
Language : English


mUA67693.jpg

Sharing Widget


Download torrent
8.74 GB
seeders:0
leechers:0
Percy Jackson And The Olympians The Lightning Thief 2010 BluRay 720p 1080p x264 AC3 HDiY