Penny.Dreadful.S03E09.720p.AAC x264.WEBRip

seeders: 13
leechers: 0
updated:
Added by Cat841.39 MB in TV
Torrent verified. Downloaded 2170 times.

DownloadFast Safe Anonymous
movies, software, shows...
  • TV Name: Penny.Dreadful.S03E09.720p.AAC x264.WEBRip
  • IMDb rating: 4.0 / 10, total 3 votes.  Latest by: v0x, 5I5O, foe
  • Uploader: Cat

Description

Complete name : Penny.Dreadful.S03E09.720p.AAC x264
Format : MPEG-4
Format profile : Base Media / Version 2
Codec ID : mp42
File size : 841 MiB
Duration : 55mn 52s
Overall bit rate mode : Variable
Overall bit rate : 2 105 Kbps
Codirector : codirector
Production studio : studio
ContentType : Unknown Type
Encoded date : UTC 2016-06-20 05:22:18
Tagged date : UTC 2016-06-20 05:22:18

Video
ID : 1
Format : AVC
Format/Info : Advanced Video Codec
Format profile : [email protected]
Format settings, CABAC : Yes
Format settings, ReFrames : 2 frames
Format settings, GOP : M=3, N=25
Muxing mode : Container [email protected]
Codec ID : avc1
Codec ID/Info : Advanced Video Coding
Duration : 55mn 51s
Source duration : 55mn 51s
Bit rate mode : Variable
Bit rate : 1 972 Kbps
Maximum bit rate : 3 000 Kbps
Width : 1 280 pixels
Height : 720 pixels
Display aspect ratio : 16:9
Frame rate mode : Constant
Frame rate : 23.976 fps
Color space : YUV
Chroma subsampling : 4:2:0
Bit depth : 8 bits
Scan type : Progressive
Bits/(Pixel*Frame) : 0.089
Stream size : 788 MiB (94%)
Source stream size : 788 MiB (94%)
Language : English

Audio
ID : 2
Format : AAC
Format/Info : Advanced Audio Codec
Format profile : LC
Codec ID : 40
Duration : 55mn 52s
Bit rate mode : Constant
Bit rate : 128 Kbps
Channel(s) : 2 channels
Channel positions : Front: L R
Sampling rate : 48.0 KHz
Compression mode : Lossy
Stream size : 51.1 MiB (6%)
Title : Stereo
Language : English

SCREENS

[img="]http://extraimage.net/images/2016/06/20/Penny.Dreadful.S03E09.720p.AACx264.WEBRip.mp4_thumbs_2016.06.20_14.53.52.jpg[/img]

Sharing Widget


Download torrent
841.39 MB
seeders:13
leechers:0
Penny.Dreadful.S03E09.720p.AAC x264.WEBRip