Noah.2014.PLDUB.DUAL.1080p.BluRay.x264-FLAME[PRiME]

seeders: 0
leechers: 0
updated:
Added by Simmoncelli12.03 GB in Movies
Torrent verified. Downloaded 3118 times.

DownloadFast Safe Anonymous
movies, software, shows...
  • Movie: Noah.2014.PLDUB.DUAL.1080p.BluRay.x264-FLAME[PRiME]
  • Info hash: 52F0ECF5BC4E53109D52945585BE642623F30DC1
  • IMDb rating: ---, not rated. please login to rate.
  • Number of files: 6
  • Genres: Movies, Action

Description

Noah.2014.PLDUB.DUAL.1080p.BluRay.x264-FLAME[PRiME]

ImDb: http://www.imdb.com/title/tt1959490

Info.png

Complete name : flame-noah.2014.pldub.dual.1080p.bluray.x264[PRiME].mkv
Format : Matroska
Format version : Version 4 / Version 2
File size : 12.0 GiB
Duration : 2 h 17 min
Overall bit rate : 12.5 Mb/s
Encoded date : UTC 2016-12-10 14:08:24
Writing application : mkvmerge v9.4.2 (\'So High\') 64bit
Writing library : libebml v1.3.4 + libmatroska v1.4.5

Video
ID : 1
Format : AVC
Format/Info : Advanced Video Codec
Format profile : [email protected]
Format settings, CABAC : Yes
Format settings, ReFrames : 4 frames
Codec ID : V_MPEG4/ISO/AVC
Duration : 2 h 17 min
Bit rate : 10.3 Mb/s
Width : 1 920 pixels
Height : 1 040 pixels
Display aspect ratio : 1.85:1
Frame rate mode : Constant
Frame rate : 23.976 (24000/1001) FPS
Color space : YUV
Chroma subsampling : 4:2:0
Bit depth : 8 bits
Scan type : Progressive
Bits/(Pixel*Frame) : 0.216
Stream size : 9.96 GiB (83%)
Writing library : x264 core 148 r2744 b97ae06
Encoding settings : cabac=1 / ref=4 / deblock=1:-2:-2 / analyse=0x3:0x133 / me=umh / subme=9 / psy=1 / psy_rd=1.00:0.00 / mixed_ref=1 / me_range=16 / chroma_me=1 / trellis=2 / 8x8dct=1 / cqm=0 / deadzone=21,11 / fast_pskip=0 / chroma_qp_offset=-2 / threads=12 / lookahead_threads=1 / sliced_threads=0 / nr=0 / decimate=1 / interlaced=0 / bluray_compat=0 / constrained_intra=0 / bframes=3 / b_pyramid=2 / b_adapt=2 / b_bias=0 / direct=3 / weightb=1 / open_gop=0 / weightp=2 / keyint=250 / keyint_min=23 / scenecut=40 / intra_refresh=0 / rc_lookahead=60 / rc=2pass / mbtree=1 / bitrate=10340 / ratetol=1.0 / qcomp=0.60 / qpmin=10 / qpmax=69 / qpstep=4 / cplxblur=20.0 / qblur=0.5 / ip_ratio=1.40 / aq=1:0.70
Language : English
Default : Yes
Forced : No

Audio #1
ID : 2
Format : AC-3
Format/Info : Audio Coding 3
Mode extension : CM (complete main)
Format settings, Endianness : Big
Codec ID : A_AC3
Duration : 2 h 17 min
Bit rate mode : Constant
Bit rate : 640 kb/s
Channel(s) : 6 channels
Channel positions : Front: L C R, Side: L R, LFE
Sampling rate : 48.0 kHz
Frame rate : 31.250 FPS (1536 spf)
Compression mode : Lossy
Stream size : 631 MiB (5%)
Title : Polish AC3 640 kbps
Language : Polish
Default : Yes
Forced : No

Audio #2
ID : 3
Format : DTS
Format/Info : Digital Theater Systems
Mode : 16
Format settings, Endianness : Big
Codec ID : A_DTS
Duration : 2 h 17 min
Bit rate mode : Constant
Bit rate : 1 509 kb/s
Channel(s) : 6 channels
Channel positions : Front: L C R, Side: L R, LFE
Sampling rate : 48.0 kHz
Frame rate : 93.750 FPS (512 spf)
Bit depth : 24 bits
Compression mode : Lossy
Stream size : 1.45 GiB (12%)
Title : English DTS 1509 kbps
Language : English
Default : No
Forced : No

Text #1
ID : 4
Format : UTF-8
Codec ID : S_TEXT/UTF8
Codec ID/Info : UTF-8 Plain Text
Duration : 2 h 17 min
Bit rate : 24 b/s
Count of elements : 1075
Stream size : 25.0 KiB (0%)
Language : Polish
Default : No
Forced : No

Text #2
ID : 5
Format : UTF-8
Codec ID : S_TEXT/UTF8
Codec ID/Info : UTF-8 Plain Text
Duration : 2 h 8 min
Bit rate : 28 b/s
Count of elements : 1102
Stream size : 26.4 KiB (0%)
Language : English
Default : No
Forced : No

Menu
00:00:00.000 : :
00:04:48.954 : :
00:08:37.265 : :
00:12:23.033 : :
00:18:43.079 : :
00:23:25.487 : :
00:32:06.423 : :
00:37:27.202 : :
00:42:50.733 : :
00:54:35.646 : :
01:01:14.961 : :
01:03:28.596 : :
01:09:33.793 : :
01:19:18.336 : :
01:21:56.536 : :
01:29:12.345 : :
01:34:02.052 : :
01:40:27.354 : :
01:49:23.097 : :
01:55:57.824 : :
02:00:37.229 : :
02:11:32.676 : :
02:17:52.888 : :


Screens.png

Click Image To View Full Size

NZUN1.th.jpg
Click To View Screenshot
Click To View Screenshot
Click To View Screenshot

Sharing Widget


Download torrent
12.03 GB
seeders:0
leechers:0
Noah.2014.PLDUB.DUAL.1080p.BluRay.x264-FLAME[PRiME]