Mohenjo Daro (2016) HQ 1080p Blu-Ray x264 ATMOS 7.1 ESub -DDR

seeders: 6
leechers: 23
updated:
Added by TeamDDR19.04 GB in Movies
Torrent verified. Downloaded 7346 times.

DownloadFast Safe Anonymous
movies, software, shows...
  • Movie: Mohenjo Daro (2016) HQ 1080p Blu-Ray x264 ATMOS 7.1 ESub -DDR
  • Info hash: 63B3D591DE88D1A155467AB33C044DDF960EF8B9
  • IMDb rating: ---, not rated. please login to rate.
  • Number of files: 3
  • Genres: Movies, Bollywood/Desi

Description

DDR-23.png

e818130b8cf14490733b573342df6495.jpg

** 2016**

** HQ 1080p / Blu-ray Rip / x264

Dolby ATMOS 7.1 Audio**


** English Subtitle(s) **



[ SCREENS ]
f78c25b7f06cef978fa5c36604fd138b.th.png 8f675297d02155cfde69d037709cceff.th.png 53278fd9e6003dda29f4427183933aaa.th.png 0dc00a46c26e8d42b977a05a146a3755.th.png b77356ead7f9a9680b88f82634956a35.th.png bcc555456e3d533948fd9e1f7c9722ed.th.png 0985f4e5a1f6edffc31268949bd2ddab.th.png 5abb0de773cd234fb6d276423d9c9aed.th.png 54ad8665243d2ec9daf502fe0cd4b5bc.th.png cc600f5412ec9af44943ce742816c084.th.png 8edac8fbfb26eed6ed4e0e9230bc29f5.th.png 139bec7a38c84ddb22a2d0c1955ddc23.th.png 7f6a5c0aea02ab5f4740b2dec0f2b449.th.png 37a78bd9b4c0591a40b0c8c0b49c4330.th.png 9c96de0919e0f07d99a4bfb157468a0b.th.png bafb6cabffeadf3c99994ac4d818e70d.th.png d533b97cac10f3c46103d4df71151ada.th.png ec5346dd2a954e23a7851258a7041d75.th.png

Source = Blu-Ray BD50 @ DDR

Format : Matroska
File size : 18.9 GiB
Duration : 2 h 56 min
Overall bit rate mode : Variable
Overall bit rate : 15.4 Mb/s


Video
Format : AVC
Format/Info : Advanced Video Codec
Format profile : [email protected]
Format settings, CABAC : Yes
Format settings, ReFrames : 5 frames
Codec ID : V_MPEG4/ISO/AVC
Duration : 2 h 56 min
Bit rate : 10 000 kb/s
Width : 1 920 pixels
Height : 800 pixels
Display aspect ratio : 2.40:1
Frame rate mode : Constant
Frame rate : 24.000 FPS
Color space : YUV
Chroma subsampling : 4:2:0
Bit depth : 8 bits
Scan type : Progressive
Bits/(Pixel*Frame) : 0.271
Stream size : 12.3 GiB (65%)
Writing library : x264 core 148 r2744 b97ae06
Default : Yes
Forced : No
Color range : Limited
Color primaries : BT.709
Transfer characteristics : BT.709
Matrix coefficients : BT.709

Audio
Format : Atmos / TrueHD
Codec ID : A_TRUEHD
Duration : 2 h 56 min
Bit rate mode : Variable
Bit rate : 4 698 kb/s
Maximum bit rate : 7 866 kb/s
Channel(s) : Object Based / 8 channels
Channel positions : Object Based / Front: L C R, Side: L R, Back: L R, LFE
Sampling rate : / 48.0 kHz
Frame rate : 1 200.000 FPS (40 spf)
Compression mode : Lossless
Stream size : 5.78 GiB (30%)
Language : Hindi
Default : Yes
Forced : No


Chapters = YES

[ A DDR Exclusive Release !!! ]

Sharing Widget


Download torrent
19.04 GB
seeders:6
leechers:23
Mohenjo Daro (2016) HQ 1080p Blu-Ray x264 ATMOS 7.1 ESub -DDR