Mike.and.Dave.Need.Wedding.Dates.(2016).1080p.BDRip.Dual.Audio.Org.BD.Hindi.5.1+Eng.5.1.-~{DOOMSDAY}~-

seeders: 177
leechers: 222
updated:
Added by DJ_Doomsday2.76 GB in Movies
Torrent verified. Downloaded 2691 times.

DownloadFast Safe Anonymous
movies, software, shows...
  • Movie: Mike.and.Dave.Need.Wedding.Dates.(2016).1080p.BDRip.Dual.Audio.Org.BD.Hindi.5.1+Eng.5.1.-~{DOOMSDAY}~-
  • Info hash: 7CCD43500E8EF6E261981CAC756BD284FF658520
  • IMDb rating: 10.0 / 10, total 9 votes.  Latest by: LexSparrow, mehula2011, rohit98, sanjaykatiyar8259, alone790
  • Number of files: 14
  • Genres: Movies, Dubbed Movies

Description

wEIU.md.png
138afba0f3b92a0c6098a965e9c1d907.md.jpg

Mike And Dave Need Wedding Dates (2016) 1080p BDRip Dual Audio Org BD Hindi 5.1+Eng 5.1 [email protected]}~-

2ddffc0d9c164a49ce558c35176aeaa8.jpg

Org Untouched BluRay Hindi 5.1 448kbps
Thanks PYZ For Audio

d9dec80cb6b49cc0ad299915b237ce2b.png

Complete name                            : Mike.and.Dave.Need.Wedding.Dates.(2016).[email protected]}~-.mkv
Format : Matroska
Format version : Version 4 / Version 2
File size : 2.70 GiB
Duration : 1 h 38 min
Overall bit rate mode : Variable
Overall bit rate : 3 925 kb/s
Movie name : Mike.and.Dave.Need.Wedding.Dates.(2016).[email protected]}~-

Video
ID : 1
Format : AVC
Format/Info : Advanced Video Codec
Format profile : [email protected]
Format settings, CABAC : Yes
Format settings, ReFrames : 5 frames
Codec ID : V_MPEG4/ISO/AVC
Duration : 1 h 38 min
Bit rate mode : Variable
Bit rate : 3 000 kb/s
Maximum bit rate : 62.5 Mb/s
Width : 1 920 pixels
Height : 804 pixels
Display aspect ratio : 2.40:1
Frame rate mode : Constant
Frame rate : 23.976 (24000/1001) FPS
Color space : YUV
Chroma subsampling : 4:2:0
Bit depth : 8 bits
Scan type : Progressive
Bits/(Pixel*Frame) : 0.081
Stream size : 2.06 GiB (76%)
Title : Mike.and.Dave.Need.Wedding.Dates.(2016).[email protected]}~-
Language : English
Default : Yes
Forced : No

Audio #1
ID : 2
Format : AC-3
Format/Info : Audio Coding 3
Mode extension : CM (complete main)
Format settings, Endianness : Big
Codec ID : A_AC3
Duration : 1 h 38 min
Bit rate mode : Constant
Bit rate : 448 kb/s
Channel(s) : 6 channels
Channel positions : Front: L C R, Side: L R, LFE
Sampling rate : 48.0 kHz
Frame rate : 31.250 FPS (1536 spf)
Compression mode : Lossy
Stream size : 316 MiB (11%)
Title : RiPPER~ L3GEND~ Org BluRay [email protected]~
Language : English
Default : No
Forced : No

Audio #2
ID : 3
Format : AC-3
Format/Info : Audio Coding 3
Mode extension : CM (complete main)
Format settings, Endianness : Big
Codec ID : A_AC3
Duration : 1 h 38 min
Bit rate mode : Constant
Bit rate : 448 kb/s
Channel(s) : 6 channels
Channel positions : Front: L C R, Side: L R, LFE
Sampling rate : 48.0 kHz
Frame rate : 31.250 FPS (1536 spf)
Compression mode : Lossy
Stream size : 316 MiB (11%)
Title : RiPPER~ L3GEND~ Org BluRay [email protected]~
Language : Hindi
Default : Yes
Forced : No

Text #1
ID : 4
Format : PGS
Muxing mode : zlib
Codec ID : S_HDMV/PGS
Codec ID/Info : Picture based subtitle format used on BDs/HD-DVDs
Duration : 1 h 37 min
Bit rate : 20.2 kb/s
Count of elements : 5404
Stream size : 14.2 MiB (1%)
Title : L3GEND~
Language : English
Default : No
Forced : No

Text #2
ID : 5
Format : PGS
Muxing mode : zlib
Codec ID : S_HDMV/PGS
Codec ID/Info : Picture based subtitle format used on BDs/HD-DVDs
Duration : 1 h 37 min
Bit rate : 14.3 kb/s
Count of elements : 4404
Stream size : 10.0 MiB (0%)
Title : L3GEND~
Language : Hindi
Default : Yes
Forced : No

Chapter : Yes




Q3KFG70.gif

f66ebe415289aaf52ab70e96fa8fc1e9.th.pngb734a3f24e0f5172110e775fd59dd142.th.png9991383b674779027ce09367c5f7f754.th.png8a22da7c4baa47e3556d4946b9c8570c.th.pngbc0ec5e1c7e56a2a4fe76abf0f47aafc.th.pngf649bc385908cdb6e10cd79e372514e7.th.png43b8b9d1c05d0ec0cdf0cbab9f936d22.th.png806d4195316016c1788624fd5eea9bfc.th.pngbffaa48a946eadb52f2c842f6d02bfb4.th.png67dc035d9d2be8f7ed5d599b687f7d7f.th.png78e85a484a3e72179f9a82acc0fa6648.th.pngba8373fe76c3da6c4047e337ad78b26e.th.png

Sharing Widget


Download torrent
2.76 GB
seeders:177
leechers:222
Mike.and.Dave.Need.Wedding.Dates.(2016).1080p.BDRip.Dual.Audio.Org.BD.Hindi.5.1+Eng.5.1.-~{DOOMSDAY}~-