Mad.Dog.Time.1996.1080p.BluRay.x264-SADPANDA[PRiME]

seeders: 0
leechers: 0
updated:
Added by Simmoncelli8.03 GB in Movies
Torrent verified. Downloaded 1782 times.

DownloadFast Safe Anonymous
movies, software, shows...
  • Movie: Mad.Dog.Time.1996.1080p.BluRay.x264-SADPANDA[PRiME]
  • Info hash: B51B73465A835A1607282B78457FF542E1BA6AC9
  • IMDb rating: ---, not rated. please login to rate.
  • Number of files: 6
  • Genres: Movies, Comedy

Description

Mad.Dog.Time.1996.1080p.BluRay.x264-SADPANDA[PRiME]

ImDb: http://www.imdb.com/title/tt0116953

Info.png

Complete name : Mad.Dog.Time.1996.1080p.BluRay.x264-SADPANDA[PRiME].mkv
Format : Matroska
Format version : Version 4 / Version 2
File size : 7.93 GiB
Duration : 1 h 32 min
Overall bit rate mode : Variable
Overall bit rate : 12.2 Mb/s
Encoded date : UTC 2016-12-10 17:40:19
Writing application : mkvmerge v9.6.0 (\'Slave To Your Mind\') 64bit
Writing library : libebml v1.3.4 + libmatroska v1.4.5

Video
ID : 1
Format : AVC
Format/Info : Advanced Video Codec
Format profile : [email protected]
Format settings, CABAC : Yes
Format settings, ReFrames : 4 frames
Codec ID : V_MPEG4/ISO/AVC
Duration : 1 h 32 min
Bit rate : 10.9 Mb/s
Width : 1 920 pixels
Height : 1 040 pixels
Display aspect ratio : 1.85:1
Frame rate mode : Constant
Frame rate : 23.976 (24000/1001) FPS
Color space : YUV
Chroma subsampling : 4:2:0
Bit depth : 8 bits
Scan type : Progressive
Bits/(Pixel*Frame) : 0.228
Stream size : 7.08 GiB (89%)
Writing library : x264 core 148 r2744 b97ae06
Encoding settings : cabac=1 / ref=4 / deblock=1:-3:-3 / analyse=0x3:0x113 / me=umh / subme=8 / psy=1 / psy_rd=1.00:0.25 / mixed_ref=1 / me_range=24 / chroma_me=1 / trellis=1 / 8x8dct=1 / cqm=0 / deadzone=21,11 / fast_pskip=1 / chroma_qp_offset=-4 / threads=24 / lookahead_threads=4 / sliced_threads=0 / nr=0 / decimate=1 / interlaced=0 / bluray_compat=0 / constrained_intra=0 / bframes=3 / b_pyramid=2 / b_adapt=1 / b_bias=0 / direct=3 / weightb=1 / open_gop=0 / weightp=2 / keyint=240 / keyint_min=24 / scenecut=40 / intra_refresh=0 / rc_lookahead=50 / rc=2pass / mbtree=1 / bitrate=10923 / ratetol=1.0 / qcomp=0.60 / qpmin=0 / qpmax=69 / qpstep=4 / cplxblur=20.0 / qblur=0.5 / ip_ratio=1.40 / aq=1:0.75
Default : Yes
Forced : No

Audio
ID : 2
Format : FLAC
Format/Info : Free Lossless Audio Codec
Codec ID : A_FLAC
Duration : 1 h 32 min
Bit rate mode : Variable
Bit rate : 1 309 kb/s
Channel(s) : 2 channels
Channel positions : Front: L R
Sampling rate : 48.0 kHz
Frame rate : 11.719 FPS (4096 spf)
Bit depth : 24 bits
Stream size : 870 MiB (11%)
Writing library : libFLAC 1.2.1 (UTC 2007-09-17)
Language : English
Default : Yes
Forced : No

Menu
00:00:00.000 : en:00:00:00.000
00:00:10.928 : en:00:00:10.928
00:10:46.646 : en:00:10:46.646
00:22:00.110 : en:00:22:00.110
00:34:35.115 : en:00:34:35.115
00:46:55.438 : en:00:46:55.438
00:59:44.247 : en:00:59:44.247
01:09:06.434 : en:01:09:06.434
01:18:49.099 : en:01:18:49.099
01:33:04.537 : en:01:33:04.537


Screens.png

Click Image To View Full Size

Nu239.th.jpg
Click To View Screenshot
Click To View Screenshot
Click To View Screenshot

Sharing Widget


Download torrent
8.03 GB
seeders:0
leechers:0
Mad.Dog.Time.1996.1080p.BluRay.x264-SADPANDA[PRiME]