Kubo and the Two Strings *2016*(48FPS)[720p.DTS 5.1.AC3.BluRay.x264-LEON 345]

seeders: 19
leechers: 27
updated:
Added by Leon3458.81 GB in Movies
Torrent verified. Downloaded 1078 times.

DownloadFast Safe Anonymous
movies, software, shows...
  • Movie: Kubo and the Two Strings *2016*(48FPS)[720p.DTS 5.1.AC3.BluRay.x264-LEON 345]
  • Info hash: BBEA5E2D2A4C23E2CBD1651CEC81FFFA0E3A294F
  • IMDb rating: ---, not rated. please login to rate.
  • Number of files: 3
  • Genres: Movies, Animation

Description

Kubo i dwie struny - Kubo and the Two Strings *2016*(48FPS)720p.BDRip.DTS 5.1-Leon 345
================================================
!!!!!!!!!!!!!48 FPS !!!!!!!!!!!!!!!!!!!!!!!!!
================================================

kompresja z użyciem interpolacji klatek czyli dodaniem klatek pośrednich dziÄ™ki czemu otrzymałem 48 FPS .Zapraszam
===========================================================

kubo2_zpsvbxtovfj.jpg

gatunek: Animacja,Familijny,Fantasy
produkcja: USA
premiera: 2 grudnia 2016 (Polska) 13 sierpnia 2016 (świat)
reżyseria: Travis Knight
scenariusz: Marc Haimes,Chris Butler

http://imdb.com/title/tt4302938/

Kubo jest dobrym, pokornym chłopcem, który u boku matki mieszka w skromnej wiosce na końcu świata. Każdy dzień toczy siÄ™ tym samym spokojnym rytmem - do czasu, kiedy chłopca odwiedza duch przeszłości, który zmienia jego przeznaczenie. Aby przetrwać, Kubo musi odnaleźć magiczną zbrojÄ™ należącą do jego ojca - najwiÄ™kszego samuraja, jakiego kiedykolwiek nosiła Ziemia. W poszukiwaniach towarzyszą mu dobre duchy i pradawne bóstwa, które wspierają go magicznymi mocami. Tak Kubo wyrusza w fascynującą, pełną niebezpieczeństw podróż śladami swej rodziny. Podróż ta pozwoli mu poczuć dumÄ™ z tego, kim jest i uwierzyć, że możliwe jest wszystko.

Obsada:

Charlize Theron...Monkey (voice)
Art Parkinson...Kubo (voice)
Ralph Fiennes...Moon King (voice)
George Takei...Hosato (voice)
Cary-Hiroyuki Tagawa...Hashi (voice)
Brenda Vaccaro...Kameyo (voice)
Rooney Mara...The Sisters (voice)
Matthew McConaughey...Beetle (voice)

General

Format : Matroska
Format version : Version 2
File size : 8.81 GiB
Duration : 1h 41mn
Overall bit rate : 12.4 Mbps
Movie name : Kubo.Two.Strings.BDRip.720p(48FPS)Leon345
Encoded date : UTC 2016-12-04 07:08:51
Writing application : mkvmerge v5.7.0 ('The Whirlwind') built on Jul 8 2012 20:08:51
Writing library : libebml v1.2.3 + libmatroska v1.3.0

Video
ID : 1
Format : AVC
Format/Info : Advanced Video Codec
Format profile : [email protected]
Format settings, CABAC : Yes
Format settings, ReFrames : 6 frames
Codec ID : V_MPEG4/ISO/AVC
Duration : 1h 41mn
Bit rate : 9 049 Kbps
Width : 1 280 pixels
Height : 536 pixels
Display aspect ratio : 2.40:1
Frame rate mode : Constant
Frame rate : 47.952 (48000/1001) fps
Color space : YUV
Chroma subsampling : 4:2:0
Bit depth : 8 bits
Scan type : Progressive
Bits/(Pixel*Frame) : 0.275
Stream size : 6.26 GiB (71%)
Writing library : x264
Encoding settings : cabac=1 / ref=6 / deblock=1:-1:-1 / rc=2pass
Default : Yes
Forced : No

Audio #1
ID : 2
Format : AC-3
Format/Info : Audio Coding 3
Mode extension : CM (complete main)
Format settings, Endianness : Big
Codec ID : A_AC3
Duration : 1h 41mn
Bit rate mode : Constant
Bit rate : 448 Kbps
Channel(s) : 6 channels
Channel positions : Front: L C R, Side: L R, LFE
Sampling rate : 48.0 KHz
Frame rate : 31.250 fps (1536 spf)
Compression mode : Lossy
Stream size : 326 MiB (4%)
Title : AC3 5.1 Dubbing PL
Language : Polish
Default : Yes
Forced : No

Audio #2
ID : 3
Format : DTS
Format/Info : Digital Theater Systems
Mode : 16
Format settings, Endianness : Big
Codec ID : A_DTS
Duration : 1h 41mn
Bit rate mode : Constant
Bit rate : 755 Kbps
Channel(s) : 6 channels
Channel positions : Front: L C R, Side: L R, LFE
Sampling rate : 48.0 KHz
Frame rate : 93.750 fps (512 spf)
Bit depth : 24 bits
Compression mode : Lossy
Stream size : 548 MiB (6%)
Title : DTS 5.1 Dubbing PL
Language : Polish
Default : No
Forced : No

Audio #3
ID : 4
Format : AC-3
Format/Info : Audio Coding 3
Mode extension : CM (complete main)
Format settings, Endianness : Big
Codec ID : A_AC3
Duration : 1h 41mn
Bit rate mode : Constant
Bit rate : 640 Kbps
Channel(s) : 6 channels
Channel positions : Front: L C R, Side: L R, LFE
Sampling rate : 48.0 KHz
Frame rate : 31.250 fps (1536 spf)
Compression mode : Lossy
Stream size : 465 MiB (5%)
Title : AC3 5.1 ENG
Language : English
Default : No
Forced : No

Audio #4
ID : 5
Format : DTS
Format/Info : Digital Theater Systems
Mode : 16
Format settings, Endianness : Big
Codec ID : A_DTS
Duration : 1h 41mn
Bit rate mode : Constant
Bit rate : 1 509 Kbps
Channel(s) : 6 channels
Channel positions : Front: L C R, Side: L R, LFE
Sampling rate : 48.0 KHz
Frame rate : 93.750 fps (512 spf)
Bit depth : 24 bits
Compression mode : Lossy
Stream size : 1.07 GiB (12%)
Title : DTS 5.1 ENG
Language : English
Default : No
Forced : No

Text #1
ID : 6
Format : UTF-8
Codec ID : S_TEXT/UTF8
Codec ID/Info : UTF-8 Plain Text
Title : napisy srt. PL
Language : Polish
Default : No
Forced : No

Text #2
ID : 7
Format : UTF-8
Codec ID : S_TEXT/UTF8
Codec ID/Info : UTF-8 Plain Text
Title : napisy srt. ENG
Language : English
Default : No
Forced : No

Text #3
ID : 8
Format : PGS
Muxing mode : zlib
Codec ID : S_HDMV/PGS
Codec ID/Info : Picture based subtitle format used on BDs/HD-DVDs
Title : napisy Bluray PL
Language : Polish
Default : No
Forced : No

Text #4
ID : 9
Format : PGS
Muxing mode : zlib
Codec ID : S_HDMV/PGS
Codec ID/Info : Picture based subtitle format used on BDs/HD-DVDs
Title : napisy Bluray ENG
Language : English
Default : No
Forced : No

A/V-BD3D CEE

Sharing Widget


Download torrent
8.81 GB
seeders:19
leechers:27
Kubo and the Two Strings *2016*(48FPS)[720p.DTS 5.1.AC3.BluRay.x264-LEON 345]