Judgment.Night.1993.1080p.BluRay.X264-AMIABLE[PRiME]

seeders: 0
leechers: 0
updated:
Added by Simmoncelli7.66 GB in Movies
Torrent verified. Downloaded 3875 times.

DownloadFast Safe Anonymous
movies, software, shows...
  • Movie: Judgment.Night.1993.1080p.BluRay.X264-AMIABLE[PRiME]
  • Info hash: FAF7D6D15F5998FEAF9AD6E2DDC2976B90C4C49E
  • IMDb rating: ---, not rated. please login to rate.
  • Number of files: 7
  • Genres: Movies, Action

Description

Judgment.Night.1993.1080p.BluRay.X264-AMIABLE[PRiME]

ImDb: http://www.imdb.com/title/tt0107286

Info.png

Complete name : Judgment.Night.1993.1080p.BluRay.X264-AMIABLE[PRiME].mkv
Format : Matroska
Format version : Version 4 / Version 2
File size : 7.65 GiB
Duration : 1 h 49 min
Overall bit rate : 9 970 kb/s
Encoded date : UTC 2010-02-22 21:41:29
Writing application : no_variable_data
Writing library : no_variable_data

Video
ID : 1
Format : AVC
Format/Info : Advanced Video Codec
Format profile : [email protected]
Format settings, CABAC : Yes
Format settings, ReFrames : 5 frames
Codec ID : V_MPEG4/ISO/AVC
Duration : 1 h 49 min
Bit rate : 8 460 kb/s
Width : 1 920 pixels
Height : 816 pixels
Display aspect ratio : 2.35:1
Frame rate mode : Constant
Frame rate : 23.976 (24000/1001) FPS
Color space : YUV
Chroma subsampling : 4:2:0
Bit depth : 8 bits
Scan type : Progressive
Bits/(Pixel*Frame) : 0.225
Stream size : 6.34 GiB (83%)
Writing library : x264 core 148 r2705 3f5ed56
Encoding settings : cabac=1 / ref=5 / deblock=1:-3:-3 / analyse=0x3:0x113 / me=umh / subme=8 / psy=1 / psy_rd=1.10:0.00 / mixed_ref=1 / me_range=16 / chroma_me=1 / trellis=1 / 8x8dct=1 / cqm=0 / deadzone=21,11 / fast_pskip=0 / chroma_qp_offset=-2 / threads=12 / lookahead_threads=2 / sliced_threads=0 / nr=0 / decimate=1 / interlaced=0 / bluray_compat=0 / constrained_intra=0 / bframes=3 / b_pyramid=2 / b_adapt=2 / b_bias=0 / direct=3 / weightb=1 / open_gop=0 / weightp=2 / keyint=240 / keyint_min=24 / scenecut=40 / intra_refresh=0 / rc_lookahead=50 / rc=2pass / mbtree=1 / bitrate=8460 / ratetol=1.0 / qcomp=0.60 / qpmin=0 / qpmax=69 / qpstep=4 / cplxblur=20.0 / qblur=0.5 / ip_ratio=1.40 / aq=3:0.75
Default : Yes
Forced : No
Statistics Tags Issue : no_variable_data 1970-01-01 00:00:00 / no_variable_data 2010-02-22 21:41:29
FromStats_BitRate : 8458678
FromStats_Duration : 01:49:51.127000000
FromStats_FrameCount : 158029
FromStats_StreamSize : 6969027914

Audio
ID : 2
Format : DTS
Format/Info : Digital Theater Systems
Mode : 16
Format settings, Endianness : Big
Codec ID : A_DTS
Duration : 1 h 49 min
Bit rate mode : Constant
Bit rate : 1 509 kb/s
Channel(s) : 6 channels
Channel positions : Front: L C R, Side: L R, LFE
Sampling rate : 48.0 kHz
Frame rate : 93.750 FPS (512 spf)
Bit depth : 24 bits
Compression mode : Lossy
Stream size : 1.16 GiB (15%)
Language : English
Default : Yes
Forced : No
Statistics Tags Issue : no_variable_data 1970-01-01 00:00:00 / no_variable_data 2010-02-22 21:41:29
FromStats_BitRate : 1509000
FromStats_Duration : 01:49:51.136000000
FromStats_FrameCount : 617919
FromStats_StreamSize : 1243253028

Menu
00:00:00.000 : en:00:00:00.000
00:09:00.498 : en:00:09:00.498
00:17:36.555 : en:00:17:36.555
00:28:41.637 : en:00:28:41.637
00:39:48.678 : en:00:39:48.678
00:46:14.522 : en:00:46:14.522
00:54:50.287 : en:00:54:50.287
01:04:59.979 : en:01:04:59.979
01:15:32.403 : en:01:15:32.403
01:22:59.308 : en:01:22:59.308
01:33:45.703 : en:01:33:45.703
01:46:15.494 : en:01:46:15.494


Screens.png

Click Image To View Full Size

NZVSd.th.jpg
Click To View Screenshot
Click To View Screenshot
Click To View Screenshot

Sharing Widget


Download torrent
7.66 GB
seeders:0
leechers:0
Judgment.Night.1993.1080p.BluRay.X264-AMIABLE[PRiME]