Iron.Man.3.(2013).1080p.BDRip.Dual.Audio.Org.DD.Hindi.2.0+Eng.5.1.-~{DOOMSDAY}~-

seeders: 77
leechers: 189
updated:
Added by DJ_Doomsday4.61 GB in Movies
Torrent verified. Downloaded 8925 times.

DownloadFast Safe Anonymous
movies, software, shows...
  • Movie: Iron.Man.3.(2013).1080p.BDRip.Dual.Audio.Org.DD.Hindi.2.0+Eng.5.1.-~{DOOMSDAY}~-
  • Info hash: B835971547103DF8E79A0DEA277D480ACC044896
  • IMDb rating: 10.0 / 10, total 6 votes.  Latest by: TeamGlory, rohit98, mohsinahmad78692, sanjaykatiyar8259, AlonEShanI
  • Number of files: 14
  • Genres: Movies, Dubbed Movies

Description

wEIU.md.png
cb5fc9e48d021e983f4597f214cb01d6.png
Iron Man 3 (2013) 1080p BDRip Dual Audio Org DD Hindi 2.0+Eng 5.1 [email protected]}~-

6a8d859adcc0b866f9b01fd2c8fcf858.jpg

::: Org Untouched Dolby Digital 2.0 384 kbps :::
::: 25 fps Own DvD :::

66b716a08d2579051c36e300fb4db5ca.png

Complete name : Iron.Man.3.(2013).[email protected]}~-.mkv
Format : Matroska
Format version : Version 4 / Version 2
File size : 4.55 GiB
Duration : 2 h 5 min
Overall bit rate mode : Variable
Overall bit rate : 5 206 kb/s
Movie name : Iron.Man.3.(2013).[email protected]}~-

Video
ID : 1
Format : AVC
Format/Info : Advanced Video Codec
Format profile : [email protected]
Format settings, CABAC : Yes
Format settings, ReFrames : 5 frames
Codec ID : V_MPEG4/ISO/AVC
Duration : 2 h 5 min
Bit rate mode : Variable
Bit rate : 4 192 kb/s
Maximum bit rate : 62.5 Mb/s
Width : 1 920 pixels
Height : 800 pixels
Display aspect ratio : 2.40:1
Frame rate mode : Constant
Frame rate : 25.000 FPS
Original frame rate : 23.976 (24000/1001) FPS
Color space : YUV
Chroma subsampling : 4:2:0
Bit depth : 8 bits
Scan type : Progressive
Bits/(Pixel*Frame) : 0.109
Stream size : 3.82 GiB (84%)
Title : Iron.Man.3.(2013).[email protected]}~-
Language : English
Default : Yes
Forced : No

Audio #1
ID : 2
Format : AC-3
Format/Info : Audio Coding 3
Mode extension : CM (complete main)
Format settings, Endianness : Big
Codec ID : A_AC3
Duration : 2 h 5 min
Bit rate mode : Constant
Bit rate : 448 kb/s
Channel(s) : 6 channels
Channel positions : Front: L C R, Side: L R, LFE
Sampling rate : 48.0 kHz
Frame rate : 31.250 FPS (1536 spf)
Compression mode : Lossy
Stream size : 401 MiB (9%)
Title : RiPPER~ L3GEND~ Org BD [email protected]~
Language : English
Default : No
Forced : No

Audio #2
ID : 3
Format : AC-3
Format/Info : Audio Coding 3
Mode extension : CM (complete main)
Format settings, Endianness : Big
Codec ID : A_AC3
Duration : 2 h 5 min
Bit rate mode : Constant
Bit rate : 384 kb/s
Channel(s) : 2 channels
Channel positions : Front: L R
Sampling rate : 48.0 kHz
Frame rate : 31.250 FPS (1536 spf)
Compression mode : Lossy
Stream size : 344 MiB (7%)
Title : RiPPER~ L3GEND~ Org DD [email protected]~
Language : Hindi
Default : Yes
Forced : No

Text
ID : 4
Format : UTF-8
Codec ID : S_TEXT/UTF8
Codec ID/Info : UTF-8 Plain Text
Duration : 2 h 4 min
Bit rate : 72 b/s
Count of elements : 2172
Stream size : 65.8 KiB (0%)
Title : L3GEND~
Language : English
Default : No
Forced : No




Q3KFG70.gif

07b900169771622554fd4f4f8aaf2ac8.th.pngcb52348167187a1f1ce1093cd91477b8.th.pnge6e757b3b7a03d2b3dc05959f54acbbd.th.pngba454f0f897670f05e006649b068245d.th.png1d35609d053e99c92180d746a91d69f9.th.png2c578cfb14c3b35b6649cf7802ebdb81.th.png2f7fc3d595a13cb7e380bae28cd69e41.th.png22ae5b1ab513c33927aba72893a692a5.th.pngfe25b5eb2c0a1575d53b3d64b85ad952.th.png792837e7a0d78cb6e9f785514e1d0d32.th.pngbc2ebe682a8bf43fd0ee83a8349cc1e8.th.png31ffdfdebcd5290cbf4dba899946b032.th.png

Sharing Widget


Download torrent
4.61 GB
seeders:77
leechers:189
Iron.Man.3.(2013).1080p.BDRip.Dual.Audio.Org.DD.Hindi.2.0+Eng.5.1.-~{DOOMSDAY}~-