Insecure.S01E07.iNTERNAL.720p.HDTV.x264-TURBO[PRiME]

seeders: 0
leechers: 0
updated:
Added by Simmoncelli659.86 MB in Other
Torrent verified. Downloaded 6271 times.

DownloadFast Safe Anonymous
movies, software, shows...
  • Name: Insecure.S01E07.iNTERNAL.720p.HDTV.x264-TURBO[PRiME]
  • Info hash: BF6EF78018E433EAC507CCA851F30B0637488B1E
  • IMDb rating: ---, not rated. please login to rate.
  • Number of files: 5
  • Genres: Other,

Description

Insecure.S01E07.iNTERNAL.720p.HDTV.x264-TURBO[PRiME]

Info.png

Complete name : Insecure.S01E07.iNTERNAL.720p.HDTV.x264-TURBO[PRiME].mkv
Format : Matroska
Format version : Version 4 / Version 2
File size : 660 MiB
Duration : 28 min 45 s
Overall bit rate : 3 209 kb/s
Encoded date : UTC 2010-02-22 21:41:29
Writing application : no_variable_data
Writing library : no_variable_data

Video
ID : 1
Format : AVC
Format/Info : Advanced Video Codec
Format profile : [email protected]
Format settings, CABAC : Yes
Format settings, ReFrames : 8 frames
Codec ID : V_MPEG4/ISO/AVC
Duration : 28 min 45 s
Bit rate : 2 761 kb/s
Width : 1 280 pixels
Height : 720 pixels
Display aspect ratio : 16:9
Frame rate mode : Constant
Frame rate : 23.976 (24000/1001) FPS
Color space : YUV
Chroma subsampling : 4:2:0
Bit depth : 8 bits
Scan type : Progressive
Bits/(Pixel*Frame) : 0.125
Stream size : 568 MiB (86%)
Title : Real As Fuck
Writing library : x264 core 148 r2721 72d53ab
Encoding settings : cabac=1 / ref=8 / deblock=1:0:0 / analyse=0x3:0x133 / me=umh / subme=9 / psy=1 / psy_rd=1.00:0.00 / mixed_ref=1 / me_range=16 / chroma_me=1 / trellis=2 / 8x8dct=1 / cqm=0 / deadzone=21,11 / fast_pskip=1 / chroma_qp_offset=-2 / threads=12 / lookahead_threads=1 / sliced_threads=0 / nr=0 / decimate=1 / interlaced=0 / bluray_compat=0 / constrained_intra=0 / bframes=3 / b_pyramid=2 / b_adapt=2 / b_bias=0 / direct=3 / weightb=1 / open_gop=0 / weightp=2 / keyint=240 / keyint_min=24 / scenecut=40 / intra_refresh=0 / rc_lookahead=60 / rc=crf / mbtree=1 / crf=18.0 / qcomp=0.60 / qpmin=0 / qpmax=69 / qpstep=4 / ip_ratio=1.40 / aq=1:1.00
Language : English
Default : Yes
Forced : No

Audio
ID : 2
Format : AC-3
Format/Info : Audio Coding 3
Mode extension : CM (complete main)
Format settings, Endianness : Big
Codec ID : A_AC3
Duration : 28 min 45 s
Bit rate mode : Constant
Bit rate : 384 kb/s
Channel(s) : 6 channels
Channel positions : Front: L C R, Side: L R, LFE
Sampling rate : 48.0 kHz
Frame rate : 31.250 FPS (1536 spf)
Compression mode : Lossy
Stream size : 79.0 MiB (12%)
Title : Real As Fuck
Language : English
Default : Yes
Forced : No


Screens.png

Click Image To View Full Size

5fVf9.th.jpg
Click To View Screenshot
Click To View Screenshot
Click To View Screenshot

Sharing Widget


Download torrent
659.86 MB
seeders:0
leechers:0
Insecure.S01E07.iNTERNAL.720p.HDTV.x264-TURBO[PRiME]