Ice.Age.Collision.Course.(2016).1080p.BDRip.Dual.Audio.Org.BD.Hindi.5.1+Eng.5.1.-~{DOOMSDAY}~-

seeders: 214
leechers: 102
updated:
Added by DJ_Doomsday3.30 GB in Movies
Torrent verified. Downloaded 6533 times.

DownloadFast Safe Anonymous
movies, software, shows...
  • Movie: Ice.Age.Collision.Course.(2016).1080p.BDRip.Dual.Audio.Org.BD.Hindi.5.1+Eng.5.1.-~{DOOMSDAY}~-
  • Info hash: B1402318548D10C8B4E1F5B3379AE09C49D25815
  • IMDb rating: 10.0 / 10, total 7 votes.  Latest by: RONIIN, sanjaykatiyar8259, rohit98, mohsinahmad78692, aman18
  • Number of files: 14
  • Genres: Movies, Dubbed Movies

Description

wEIU.md.png
6307fad5bea73db77bdb070d9d6ee51c.md.png

Ice Age Collision Course (2016) 1080p BDRip Dual Audio Org BD Hindi 5.1+Eng 5.1[email protected]}~-


1498fd4e33af19967ee43c359ccfc4a0.jpg


Org BluRay Hindi 5.1 448kbps
Thankx SnowDon

e4c84f953e10b591d0f3cf7aced2edc6.png

Complete name : Ice.Age.Collision.Course.(2016).[email protected]}~-.mkv
Format : Matroska
Format version : Version 4 / Version 2
File size : 3.24 GiB
Duration : 1 h 34 min
Overall bit rate mode : Variable
Overall bit rate : 4 900 kb/s
Movie name : Ice.Age.Collision.Course.(2016).[email protected]}~-

Video
ID : 1
Format : AVC
Format/Info : Advanced Video Codec
Format profile : [email protected]
Format settings, CABAC : Yes
Format settings, ReFrames : 5 frames
Codec ID : V_MPEG4/ISO/AVC
Duration : 1 h 34 min
Bit rate mode : Variable
Bit rate : 3 789 kb/s
Maximum bit rate : 62.5 Mb/s
Width : 1 920 pixels
Height : 800 pixels
Display aspect ratio : 2.40:1
Frame rate mode : Constant
Frame rate : 23.976 (24000/1001) FPS
Color space : YUV
Chroma subsampling : 4:2:0
Bit depth : 8 bits
Scan type : Progressive
Bits/(Pixel*Frame) : 0.103
Stream size : 2.50 GiB (77%)
Title : Ice.Age.Collision.Course.(2016).[email protected]}~-
Language : English
Default : Yes
Forced : No

Audio #1
ID : 2
Format : AC-3
Format/Info : Audio Coding 3
Mode extension : CM (complete main)
Format settings, Endianness : Big
Codec ID : A_AC3
Duration : 1 h 34 min
Bit rate mode : Constant
Bit rate : 640 kb/s
Channel(s) : 6 channels
Channel positions : Front: L C R, Side: L R, LFE
Sampling rate : 48.0 kHz
Frame rate : 31.250 FPS (1536 spf)
Compression mode : Lossy
Stream size : 432 MiB (13%)
Title : RiPPER~ L3GEND~ Org BluRay [email protected]~
Language : English
Default : No
Forced : No

Audio #2
ID : 3
Format : AC-3
Format/Info : Audio Coding 3
Mode extension : CM (complete main)
Format settings, Endianness : Big
Codec ID : A_AC3
Duration : 1 h 34 min
Bit rate mode : Constant
Bit rate : 448 kb/s
Channel(s) : 6 channels
Channel positions : Front: L C R, Side: L R, LFE
Sampling rate : 48.0 kHz
Frame rate : 31.250 FPS (1536 spf)
Compression mode : Lossy
Stream size : 303 MiB (9%)
Title : RiPPER~ L3GEND~ Org BluRay [email protected]~
Language : Hindi
Default : Yes
Forced : No

Text #1
ID : 4
Format : PGS
Muxing mode : zlib
Codec ID : S_HDMV/PGS
Codec ID/Info : Picture based subtitle format used on BDs/HD-DVDs
Duration : 1 h 33 min
Bit rate : 8 755 b/s
Count of elements : 2438
Stream size : 5.86 MiB (0%)
Title : L3GEND~
Language : Hindi
Default : Yes
Forced : No

Text #2
ID : 5
Format : PGS
Muxing mode : zlib
Codec ID : S_HDMV/PGS
Codec ID/Info : Picture based subtitle format used on BDs/HD-DVDs
Duration : 1 h 29 min
Bit rate : 14.8 kb/s
Count of elements : 3876
Stream size : 9.48 MiB (0%)
Title : L3GEND~
Language : English
Default : No
Forced : No



Q3KFG70.gif
47a2fe98b36b4db58f04eb003b51822a.th.png9e0664df1aa0365e69a66f7049e370f6.th.pngb69f99fc230f13f48902b16865fafa3b.th.png44d61655734e8c611156ed941abbfcb0.th.png6ad9c50cd1856b4f836cc28b47bea4d8.th.png19c30ee2e5027e0d8a5e63c6747ee594.th.pngd4bf197cf799c9f57dedca5706597f81.th.png2387142f175f3af4314b3c2da18350b8.th.png76213d989258f02cbbe8982180537c7a.th.pngbb00905790cec1c968381fb50f18a842.th.png83fe2cff209c7efaf51da380f140d308.th.png7975c0213a5357fe9f22a1c50d883ad4.th.png

Sharing Widget


Download torrent
3.30 GB
seeders:214
leechers:102
Ice.Age.Collision.Course.(2016).1080p.BDRip.Dual.Audio.Org.BD.Hindi.5.1+Eng.5.1.-~{DOOMSDAY}~-