Guppy.2016.Malayalam.720p.DVDrip.HEVC.PoOlLa

seeders: 148
leechers: 84
updated:
Added by poolla602.42 MB in Movies
Torrent verified. Downloaded 9503 times.

DownloadFast Safe Anonymous
movies, software, shows...
  • Movie: Guppy.2016.Malayalam.720p.DVDrip.HEVC.PoOlLa
  • Info hash: 4974AD165635F87899E5B78634C41F5A7B54C7F9
  • IMDb rating: ---, not rated. please login to rate.
  • Number of files: 1
  • Genres: Movies, Bollywood/Desi

Description

use .torrent file instead of magnet link for faster download speed

Recommended Players: Smplayer OR klite codec pack

1470678173_guppy-1.jpg
Plot: The story of a 12 year old boy who sells guppy fish for a living in his colorful beach side colony. When an engineer is summoned to construct a bridge, the contrasting characters cause great tension and turmoil.

Director: Johnpaul George

Click Here For Screenshot

IMDB , TRAILER

Language: Malayalam
Subtitles: English Subtitle

MediaInfo:

Format : Matroska
File size : 602 MiB
Duration : 2 h 35 min
Overall bit rate mode : Variable
Overall bit rate : 543 kb/s

Video
Format : HEVC
Bit rate : 492 kb/s
Width : 1 280 pixels
Height : 544 pixels
Display aspect ratio : 2.35:1
Frame rate mode : Constant
Frame rate : 23.976 (24000/1001) FPS
Color space : YUV
Chroma subsampling : 4:2:0
Bit depth : 8 bits
Bits/(Pixel*Frame) : 0.029
Stream size : 546 MiB (91%)
Writing library : x265 2.1+2-c0d91c2b4048:[Windows][GCC 6.2.0][64 bit] 8bit+10bit+12bit


Audio
Format : Vorbis
Bit rate mode : Variable
Bit rate : 56.0 kb/s
Channel(s) : 2 channels
Sampling rate : 48.0 kHz
Compression mode : Lossy
Stream size : 54.6 MiB (9%)
Language : Malayalam

Sharing Widget


Download torrent
602.42 MB
seeders:148
leechers:84
Guppy.2016.Malayalam.720p.DVDrip.HEVC.PoOlLa