Game of Thrones (2011) Season 6 S06 (1080p Bluray x265 HEVC 10bit AAC 7.1 Hodor) [UTR]

seeders: 28
leechers: 18
updated:
Added by UTR10.10 GB in TV
Torrent verified. Downloaded 8057 times.

DownloadFast Safe Anonymous
movies, software, shows...
  • TV Name: Game of Thrones (2011) Season 6 S06 (1080p Bluray x265 HEVC 10bit AAC 7.1 Hodor) [UTR]
  • IMDb rating: 10.0 / 10, total 2 votes.  Latest by: UncleJemima, Rafai
  • Uploader: UTR

Description

gv8mpWw.png
Media Info


General

Format : Matroska
Format version : Version 4 / Version 2
File size : 1.13 GiB
Duration : 50 min 4 s
Overall bit rate : 3 241 kb/s
Encoded date : UTC 2016-11-06 08:42:45
Writing application : mkvmerge v9.5.0 (\'Quiet Fire\') 64bit
Writing library : libebml v1.3.4 + libmatroska v1.4.5

Video
ID : 1
Format : HEVC
Format/Info : High Efficiency Video Coding
Format profile : Main [email protected]@Main
Codec ID : V_MPEGH/ISO/HEVC
Duration : 50 min 4 s
Bit rate : 2 181 kb/s
Width : 1 920 pixels
Height : 1 080 pixels
Display aspect ratio : 16:9
Frame rate mode : Constant
Frame rate : 23.976 (24000/1001) FPS
Color space : YUV
Chroma subsampling : 4:2:0
Bit depth : 10 bits
Bits/(Pixel*Frame) : 0.044
Stream size : 781 MiB (67%)
Writing library : x265 2.1+11-a3d4e3b13c6c:[Windows][GCC 6.2.0][64 bit] 10bit
Encoding settings : wpp / ctu=64 / min-cu-size=8 / max-tu-size=32 / tu-intra-depth=1 / tu-inter-depth=1 / me=1 / subme=2 / merange=57 / no-rect / no-amp / max-merge=2 / temporal-mvp / no-early-skip / no-rskip / rdpenalty=0 / no-tskip / no-tskip-fast / no-strong-intra-smoothing / no-lossless / no-cu-lossless / no-constrained-intra / no-fast-intra / open-gop / no-temporal-layers / interlace=0 / keyint=250 / min-keyint=23 / scenecut=40 / rc-lookahead=80 / lookahead-slices=0 / bframes=8 / bframe-bias=0 / b-adapt=2 / ref=3 / limit-refs=3 / no-limit-modes / weightp / no-weightb / aq-mode=2 / qg-size=32 / aq-strength=1.00 / cbqpoffs=0 / crqpoffs=0 / rd=3 / psy-rd=1.50 / rdoq-level=0 / psy-rdoq=0.00 / log2-max-poc-lsb=8 / no-rd-refine / signhide / deblock=-3:-3 / sao / no-sao-non-deblock / b-pyramid / cutree / no-intra-refresh / rc=crf / crf=22.0 / qcomp=0.60 / qpmin=0 / qpmax=69 / qpstep=4 / ipratio=1.40 / pbratio=1.30
Language : English
Default : Yes
Forced : No

Audio
ID : 2
Format : AAC
Format/Info : Advanced Audio Codec
Format profile : LC
Codec ID : A_AAC
Duration : 50 min 4 s
Bit rate : 529 kb/s
Channel(s) : 8 channels
Channel positions : Front: L C R, Side: L R, Back: L R, LFE
Sampling rate : 48.0 kHz
Frame rate : 46.875 FPS (1024 spf)
Compression mode : Lossy
Delay relative to video : 20 ms
Stream size : 189 MiB (16%)
Language : English
Default : Yes
Forced : No

Audio
ID : 3
Format : AC-3
Format/Info : Audio Coding 3
Mode extension : CM (complete main)
Format settings, Endianness : Big
Codec ID : A_AC3
Duration : 50 min 4 s
Bit rate mode : Constant
Bit rate : 448 kb/s
Channel(s) : 6 channels
Channel positions : Front: L C R, Side: L R, LFE
Sampling rate : 48.0 kHz
Frame rate : 31.250 FPS (1536 spf)
Bit depth : 16 bits
Compression mode : Lossy
Stream size : 160 MiB (14%)
Title : Commentary by Cast & Crew
Language : English
Default : No
Forced : No

Subtitles
ID : 4
Format : PGS
Muxing mode : zlib
Codec ID : S_HDMV/PGS
Codec ID/Info : Picture based subtitle format used on BDs/HD-DVDs
Duration : 43 min 58 s
Bit rate : 10.5 kb/s
Count of elements : 1088
Stream size : 3.29 MiB (0%)
Title : SDH
Language : English
Default : No
Forced : No

Subtitles
ID : 5
Format : PGS
Muxing mode : zlib
Codec ID : S_HDMV/PGS
Codec ID/Info : Picture based subtitle format used on BDs/HD-DVDs
Duration : 46 min 28 s
Bit rate : 7 417 b/s
Count of elements : 952
Stream size : 2.47 MiB (0%)
Language : French
Default : No
Forced : No

Subtitles
ID : 6
Format : PGS
Muxing mode : zlib
Codec ID : S_HDMV/PGS
Codec ID/Info : Picture based subtitle format used on BDs/HD-DVDs
Duration : 42 min 27 s
Bit rate : 8 623 b/s
Count of elements : 902
Stream size : 2.62 MiB (0%)
Language : Spanish
Default : No
Forced : No

Subtitles
ID : 7
Format : PGS
Muxing mode : zlib
Codec ID : S_HDMV/PGS
Codec ID/Info : Picture based subtitle format used on BDs/HD-DVDs
Duration : 42 min 27 s
Bit rate : 8 755 b/s
Count of elements : 906
Stream size : 2.66 MiB (0%)
Language : Spanish
Default : No
Forced : No

Subtitles
ID : 8
Format : PGS
Muxing mode : zlib
Codec ID : S_HDMV/PGS
Codec ID/Info : Picture based subtitle format used on BDs/HD-DVDs
Duration : 42 min 27 s
Bit rate : 9 024 b/s
Count of elements : 832
Stream size : 2.74 MiB (0%)
Language : German
Default : No
Forced : No

Subtitles
ID : 9
Format : PGS
Muxing mode : zlib
Codec ID : S_HDMV/PGS
Codec ID/Info : Picture based subtitle format used on BDs/HD-DVDs
Duration : 42 min 27 s
Bit rate : 8 654 b/s
Count of elements : 896
Stream size : 2.63 MiB (0%)
Language : Portuguese
Default : No
Forced : No

Subtitles
ID : 10
Format : PGS
Muxing mode : zlib
Codec ID : S_HDMV/PGS
Codec ID/Info : Picture based subtitle format used on BDs/HD-DVDs
Duration : 42 min 27 s
Bit rate : 8 733 b/s
Count of elements : 910
Stream size : 2.65 MiB (0%)
Language : Dutch
Default : No
Forced : No

Subtitles
ID : 11
Format : PGS
Muxing mode : zlib
Codec ID : S_HDMV/PGS
Codec ID/Info : Picture based subtitle format used on BDs/HD-DVDs
Duration : 42 min 27 s
Bit rate : 8 733 b/s
Count of elements : 908
Stream size : 2.65 MiB (0%)
Language : Danish
Default : No
Forced : No

Subtitles
ID : 12
Format : PGS
Muxing mode : zlib
Codec ID : S_HDMV/PGS
Codec ID/Info : Picture based subtitle format used on BDs/HD-DVDs
Duration : 42 min 27 s
Bit rate : 7 599 b/s
Count of elements : 910
Stream size : 2.31 MiB (0%)
Language : Finnish
Default : No
Forced : No

Subtitles
ID : 13
Format : PGS
Muxing mode : zlib
Codec ID : S_HDMV/PGS
Codec ID/Info : Picture based subtitle format used on BDs/HD-DVDs
Duration : 42 min 27 s
Bit rate : 8 361 b/s
Count of elements : 910
Stream size : 2.54 MiB (0%)
Language : Norwegian
Default : No
Forced : No

Subtitles
ID : 14
Format : PGS
Muxing mode : zlib
Codec ID : S_HDMV/PGS
Codec ID/Info : Picture based subtitle format used on BDs/HD-DVDs
Duration : 42 min 27 s
Bit rate : 8 459 b/s
Count of elements : 910
Stream size : 2.57 MiB (0%)
Language : Swedish
Default : No
Forced : No

Menu
00:00:00.000 : en: Chapter 1
00:01:56.116 : en: Chapter 2
00:09:34.616 : en: Chapter 3
00:19:05.603 : en: Chapter 4
00:29:02.366 : en: Chapter 5
00:35:32.464 : en: Chapter 6
00:41:22.063 : en: Chapter 7
00:48:42.336 : en: Chapter 8

Sources

Sharing Widget


Download torrent
10.10 GB
seeders:28
leechers:18
Game of Thrones (2011) Season 6 S06 (1080p Bluray x265 HEVC 10bit AAC 7.1 Hodor) [UTR]