David.Brent.Life.on.the.Road.2016.1080p.BluRay.x264-EiDER[PRiME]

seeders: 14
leechers: 48
updated:
Added by Simmoncelli7.73 GB in Movies
Torrent verified. Downloaded 7612 times.

DownloadFast Safe Anonymous
movies, software, shows...
  • Movie: David.Brent.Life.on.the.Road.2016.1080p.BluRay.x264-EiDER[PRiME]
  • Info hash: B56402EDE0A961A2B7E21284CCDFB7BBCD56BC57
  • IMDb rating: ---, not rated. please login to rate.
  • Number of files: 7
  • Genres: Movies, Comedy

Description

David.Brent.Life.on.the.Road.2016.1080p.BluRay.x264-EiDER[PRiME]

ImDb: http://www.imdb.com/title/tt3137630

Info.png

Complete name : David.Brent.Life.on.the.Road.2016.1080p.BluRay.x264-EiDER[PRiME].mkv
Format : Matroska
Format version : Version 4 / Version 2
File size : 7.65 GiB
Duration : 1 h 35 min
Overall bit rate : 11.4 Mb/s
Encoded date : UTC 2016-12-10 18:45:22
Writing application : mkvmerge v9.6.0 (\'Slave To Your Mind\') 64bit
Writing library : libebml v1.3.4 + libmatroska v1.4.5

Video
ID : 1
Format : AVC
Format/Info : Advanced Video Codec
Format profile : [email protected]
Format settings, CABAC : Yes
Format settings, ReFrames : 4 frames
Codec ID : V_MPEG4/ISO/AVC
Duration : 1 h 35 min
Bit rate : 9 903 kb/s
Width : 1 920 pixels
Height : 1 040 pixels
Display aspect ratio : 1.85:1
Frame rate mode : Constant
Frame rate : 23.976 (24000/1001) FPS
Color space : YUV
Chroma subsampling : 4:2:0
Bit depth : 8 bits
Scan type : Progressive
Bits/(Pixel*Frame) : 0.207
Stream size : 6.64 GiB (87%)
Writing library : x264 core 148 r2744 b97ae06
Encoding settings : cabac=1 / ref=4 / deblock=1:0:0 / analyse=0x3:0x113 / me=umh / subme=8 / psy=1 / psy_rd=1.00:0.00 / mixed_ref=1 / me_range=16 / chroma_me=1 / trellis=1 / 8x8dct=1 / cqm=0 / deadzone=21,11 / fast_pskip=1 / chroma_qp_offset=-2 / threads=18 / lookahead_threads=3 / sliced_threads=0 / nr=0 / decimate=1 / interlaced=0 / bluray_compat=0 / constrained_intra=0 / bframes=3 / b_pyramid=2 / b_adapt=1 / b_bias=0 / direct=3 / weightb=1 / open_gop=0 / weightp=2 / keyint=240 / keyint_min=23 / scenecut=40 / intra_refresh=0 / rc_lookahead=50 / rc=2pass / mbtree=1 / bitrate=9903 / ratetol=1.0 / qcomp=0.60 / qpmin=0 / qpmax=69 / qpstep=4 / cplxblur=20.0 / qblur=0.5 / vbv_maxrate=62500 / vbv_bufsize=78125 / nal_hrd=none / filler=0 / ip_ratio=1.40 / aq=1:1.00
Default : Yes
Forced : No

Audio
ID : 2
Format : DTS
Format/Info : Digital Theater Systems
Mode : 16
Format settings, Endianness : Big
Codec ID : A_DTS
Duration : 1 h 35 min
Bit rate mode : Constant
Bit rate : 1 509 kb/s
Channel(s) : 6 channels
Channel positions : Front: L C R, Side: L R, LFE
Sampling rate : 48.0 kHz
Frame rate : 93.750 FPS (512 spf)
Bit depth : 24 bits
Compression mode : Lossy
Stream size : 1.01 GiB (13%)
Language : English
Default : Yes
Forced : No

Text
ID : 3
Format : UTF-8
Codec ID : S_TEXT/UTF8
Codec ID/Info : UTF-8 Plain Text
Duration : 1 h 35 min
Bit rate : 98 b/s
Count of elements : 1898
Stream size : 68.3 KiB (0%)
Language : English
Default : No
Forced : No

Menu
00:00:00.000 : en:00:00:00.000
00:02:52.756 : en:00:02:52.756
00:08:57.996 : en:00:08:57.996
00:14:29.410 : en:00:14:29.410
00:20:17.383 : en:00:20:17.383
00:27:30.983 : en:00:27:30.983
00:33:32.385 : en:00:33:32.385
00:40:38.019 : en:00:40:38.019
00:45:20.635 : en:00:45:20.635
00:50:35.032 : en:00:50:35.032
00:56:19.876 : en:00:56:19.876
01:03:16.876 : en:01:03:16.876
01:13:18.019 : en:01:13:18.019
01:20:57.895 : en:01:20:57.895
01:27:25.615 : en:01:27:25.615
01:31:34.197 : en:01:31:34.197


Screens.png

Click Image To View Full Size

NZk7B.th.jpg
Click To View Screenshot
Click To View Screenshot
Click To View Screenshot

Sharing Widget


Download torrent
7.73 GB
seeders:14
leechers:48
David.Brent.Life.on.the.Road.2016.1080p.BluRay.x264-EiDER[PRiME]