Conan.2016.12.07.Conan.in.Berlin.1080p.WEB-DL.AAC2.0.HEVC.x265.sharpysword[SPECIAL EPISODE]

seeders: 230
leechers: 227
updated:
Added by sharpysword09709.27 MB in TV
Torrent verified. Downloaded 2371 times.

DownloadFast Safe Anonymous
movies, software, shows...
  • TV Name: Conan.2016.12.07.Conan.in.Berlin.1080p.WEB-DL.AAC2.0.HEVC.x265.sharpysword[SPECIAL EPISODE]
  • IMDb rating: ---, not rated. please login to rate.
  • Uploader: sharpysword09

Description


Screenshot


7695f3f9cde0fcea544c9088300240e2.md.jpg
c59b71ea9061b5c3dff97190a035312e.md.jpg
021eaa51c712e3768c3898394b83596c.md.jpg





Quote:




Source:Conan.2016.12.07.Conan.in.Berlin.1080p.WEB-DL.AAC2.0.H.264-BTN
Stream #0:0(eng): Video: hevc (Main), yuv420p(tv), 1916x1076 [SAR 1:1 DAR 479:269], 25 fps, 25 tbr, 1k tbn, 25 tbc (default)

Stream #0:1(eng): Audio: aac (LC), 48000 Hz, stereo, fltp (default)





Sharing Widget


Download torrent
709.27 MB
seeders:230
leechers:227
Conan.2016.12.07.Conan.in.Berlin.1080p.WEB-DL.AAC2.0.HEVC.x265.sharpysword[SPECIAL EPISODE]