City Beneath the Waves – Pavlopetri

seeders: 0
leechers: 0
updated:
Added by ElsonRoa0.99 GB in TV
Torrent verified. Downloaded 6756 times.

DownloadFast Safe Anonymous
movies, software, shows...
  • TV Name: City Beneath the Waves – Pavlopetri
  • IMDb rating: ---, not rated. please login to rate.
  • Uploader: ElsonRoa

Description

City Beneath the Waves – Pavlopetri

Just off the southern coast of mainland Greece lies the oldest submerged city in the world. It thrived for 2,000 years during the time that saw the birth of western civilisation.

An international team of experts uses cutting-edge technology to prise age-old secrets from the complex of streets and stone buildings that lie less than five metres below the surface of the ocean. State-of-the-art CGI helps to raise the city from the seabed, revealing for the first time in 3,500 years how Pavlopetri would once have looked and operated.

Underwater archaeologist Dr Jon Henderson leads the project in collaboration with Nic Flemming, the man whose hunch led to the discovery of Pavlopetri in 1967, and a team from the Hellenic Ministry of Culture. Working alongside the archaeologists are a team from the Australian Centre for Field Robotics.

The teams scour the ocean floor, looking for artefacts. The site is littered with thousands of fragments, each providing valuable clues about the everyday lives of the people of Pavlopetri. From the buildings to the trade goods to the everyday tableware, each artefact provides a window into a forgotten world.

Together these precious relics provide us with a window to a time when Pavlopetri would have been at its height, showing us what life was like in this distant age and revealing how this city marks the start of western civilisation.

(with soft English subtitles)

First Broadcast: 9 October 2011
Duration: 1 hour

dc300c193fb3d2eb8f6a73fc8f6c0484.md.jpg

Media info:-

General
Format : MPEG-4
Format profile : Base Media
Codec ID : isom (isom/iso2/avc1/mp41)
File size : 1 015 MiB
Duration : 58mn 53s
Overall bit rate mode : Variable
Overall bit rate : 2 410 Kbps
Writing application : Lavf57.25.100


Video
ID : 1
Format : AVC
Format/Info : Advanced Video Codec
Format profile : [email protected]
Format settings, CABAC : Yes
Format settings, ReFrames : 2 frames
Codec ID : avc1
Codec ID/Info : Advanced Video Coding
Duration : 58mn 53s
Bit rate mode : Variable
Bit rate : 2 311 Kbps
Maximum bit rate : 3 500 Kbps
Width : 1 280 pixels
Height : 720 pixels
Display aspect ratio : 16:9
Frame rate mode : Constant
Frame rate : 25.000 fps
Color space : YUV
Chroma subsampling : 4:2:0
Bit depth : 8 bits
Scan type : Progressive
Bits/(Pixel*Frame) : 0.100
Stream size : 974 MiB (96%)

Audio
ID : 2
Format : AAC
Format/Info : Advanced Audio Codec
Format profile : LC
Codec ID : 40
Duration : 58mn 53s
Bit rate mode : Constant
Bit rate : 93.5 Kbps
Channel(s) : 2 channels
Channel positions : Front: L R
Sampling rate : 48.0 KHz
Frame rate : 46.875 fps (1024 spf)
Compression mode : Lossy
Stream size : 39.4 MiB (4%)

Sharing Widget


Download torrent
0.99 GB
seeders:0
leechers:0
City Beneath the Waves – Pavlopetri