Central.Intelligence.(2016).Unrated.1080p.BDRip.Dual.Audio.BD.Hindi.5.1+Eng.5.1.-~{DOOMSDAY}~-

seeders: 17
leechers: 92
updated:
Added by DJ_Doomsday3.40 GB in Movies
Torrent verified. Downloaded 7963 times.

DownloadFast Safe Anonymous
movies, software, shows...
  • Movie: Central.Intelligence.(2016).Unrated.1080p.BDRip.Dual.Audio.BD.Hindi.5.1+Eng.5.1.-~{DOOMSDAY}~-
  • Info hash: 7400A971CBD7CD8D70746FBBAA6DFB0F83861C1A
  • IMDb rating: 10.0 / 10, total 7 votes.  Latest by: alone790, skrrajput, mehula2011, sanjaykatiyar8259, mohsinahmad78692
  • Number of files: 17
  • Genres: Movies, Dubbed Movies

Description

wEIU.md.png
1e643a75df48191cc7f66076ce6c1b09.png

Central Intelligence (2016) Unrated 1080p BDRip Dual Audio BD Hindi 5.1+Eng 5.1 [email protected]}~-

4183870d91b0d6b9f53edeeb4c3e4a0b.jpg

Thanks TiTAN For Sync Audio
b6fed46ca3bab89e5556e3872a3dac19.png

Complete name : Central.Intelligence.(2016).[email protected]Y}~-.mkv
Format : Matroska
Format version : Version 4 / Version 2
File size : 3.33 GiB
Duration : 1 h 56 min
Overall bit rate mode : Variable
Overall bit rate : 4 090 kb/s
Movie name : Central.Intelligence.(2016).[email protected]Y}~-

Video
ID : 1
Format : AVC
Format/Info : Advanced Video Codec
Format profile : [email protected]
Format settings, CABAC : Yes
Format settings, ReFrames : 5 frames
Codec ID : V_MPEG4/ISO/AVC
Duration : 1 h 56 min
Bit rate mode : Variable
Bit rate : 3 000 kb/s
Maximum bit rate : 62.5 Mb/s
Width : 1 920 pixels
Height : 800 pixels
Display aspect ratio : 2.40:1
Frame rate mode : Constant
Frame rate : 23.976 (24000/1001) FPS
Color space : YUV
Chroma subsampling : 4:2:0
Bit depth : 8 bits
Scan type : Progressive
Bits/(Pixel*Frame) : 0.081
Stream size : 2.44 GiB (73%)
Title : Central.Intelligence.(2016).[email protected]Y}~-
Language : English
Default : Yes
Forced : No

Audio #1
ID : 2
Format : AC-3
Format/Info : Audio Coding 3
Mode extension : CM (complete main)
Format settings, Endianness : Big
Codec ID : A_AC3
Duration : 1 h 56 min
Bit rate mode : Constant
Bit rate : 448 kb/s
Channel(s) : 6 channels
Channel positions : Front: L C R, Side: L R, LFE
Sampling rate : 48.0 kHz
Frame rate : 31.250 FPS (1536 spf)
Compression mode : Lossy
Stream size : 373 MiB (11%)
Title : RiPPER~ L3GEND~ Org BluRay 5.1 @ 448kbps~
Language : English
Default : No
Forced : No

Audio #2
ID : 3
Format : AC-3
Format/Info : Audio Coding 3
Mode extension : CM (complete main)
Format settings, Endianness : Big
Codec ID : A_AC3
Duration : 1 h 56 min
Bit rate mode : Constant
Bit rate : 640 kb/s
Channel(s) : 6 channels
Channel positions : Front: L C R, Side: L R, LFE
Sampling rate : 48.0 kHz
Frame rate : 31.250 FPS (1536 spf)
Compression mode : Lossy
Stream size : 533 MiB (16%)
Title : RiPPER~ L3GEND~ Org BluRay 5.1 @ 640kbps~
Language : Hindi
Default : Yes
Forced : No

Text
ID : 4
Format : UTF-8
Codec ID : S_TEXT/UTF8
Codec ID/Info : UTF-8 Plain Text
Duration : 1 h 54 min
Bit rate : 89 b/s
Count of elements : 2336
Stream size : 75.0 KiB (0%)
Title : ~L3GEND~
Language : English
Default : Yes
Forced : No


Q3KFG70.gif
a905fa4d39c288352eb4793b2884ff04.th.pngdc34d791214ac2546027723f1f5d2d73.th.pnge17dc42c9a5462dba1f29a2c5296cb16.th.pngcd78d8297b389b525f7cd5f1eb625943.th.png80053f2ea9c5ab9d18b8eecdb0553364.th.pnge579234d33d1460710667f5a4382439f.th.png9d51e41208256ce2100a84997cd9b32e.th.png974da6d0b11af1104870afbaaf5b9194.th.pnga7da24a94dcee3a31d756b69e39bbe51.th.pngb3bcf6d4bf35e7cca130fdf45c6c6863.th.png167960b5d0dd2a15b08ff3c561fbebc9.th.png4f2c383436219d1b929b16b4e6116c1f.th.png3448fdd6575ffc6270174c199b11854a.th.png16d5506906dada8e559c566c9eb28674.th.png9f992f0fe64a0f9a4d5c6c18f40dfc1a.th.png

Sharing Widget


Download torrent
3.40 GB
seeders:17
leechers:92
Central.Intelligence.(2016).Unrated.1080p.BDRip.Dual.Audio.BD.Hindi.5.1+Eng.5.1.-~{DOOMSDAY}~-