A.Charlie.Brown.Christmas.1965.1080p.Plus.Bonus.Feature.Sphinctone1

seeders: 175
leechers: 80
updated:
Added by Sphinctone11.25 GB in Movies
Torrent verified. Downloaded 2867 times.

DownloadFast Safe Anonymous
movies, software, shows...
  • Movie: A.Charlie.Brown.Christmas.1965.1080p.Plus.Bonus.Feature.Sphinctone1
  • Info hash: 1CAC8D64CE09BA6DD45B50BF322099BD052650F6
  • IMDb rating: ---, not rated. please login to rate.
  • Number of files: 2
  • Genres: Movies, Animation

Description

Full English Subs Softcoded

Please Seed for as long as you can!
l_Zrn_Sva9_Je.jpg
VLC Screen Captures Below
Full Media Info
Container : Matroska
Format version : Version 4 / Version 2
File size : 1.09 GiB
Duration : 25mn 28s
Overall bit rate : 6 140 Kbps
Encoded date : UTC 2016-12-11 01:06:41
Writing application : mkvmerge v9.0.1 ('Obstacles') 64bit
Writing library : libebml v1.3.3 + libmatroska v1.4.4

Video
ID : 1
Format : AVC
Format/Info : Advanced Video Codec
Format profile : [email protected]
Format settings, CABAC : Yes
Format settings, ReFrames : 4 frames
Codec ID : V_MPEG4/ISO/AVC
Duration : 25mn 28s
Bit rate : 5 500 Kbps
Width : 1 488 pixels
Height : 1 080 pixels
Display aspect ratio : 1.378
Frame rate mode : Constant
Frame rate : 23.976 (24000/1001) fps
Color space : YUV
Chroma subsampling : 4:2:0
Bit depth : 8 bits
Scan type : Progressive
Bits/(Pixel*Frame) : 0.143
Stream size : 1 002 MiB (90%)
Writing library : x264 core 142 r2479 dd79a61
Encoding settings : cabac=1 / ref=5 / deblock=1:-1:-1 / analyse=0x3:0x133 / me=umh / subme=10 / psy=1 / psy_rd=1.00:0.00 / mixed_ref=0 / me_range=34 / chroma_me=1 / trellis=2 / 8x8dct=1 / cqm=0 / deadzone=21,11 / fast_pskip=1 / chroma_qp_offset=-2 / threads=6 / lookahead_threads=1 / sliced_threads=0 / nr=0 / decimate=1 / interlaced=0 / bluray_compat=0 / constrained_intra=0 / bframes=5 / b_pyramid=1 / b_adapt=2 / b_bias=0 / direct=3 / weightb=1 / open_gop=0 / weightp=2 / keyint=240 / keyint_min=24 / scenecut=40 / intra_refresh=0 / rc_lookahead=60 / rc=2pass / mbtree=1 / bitrate=5500 / ratetol=1.0 / qcomp=0.60 / qpmin=0 / qpmax=69 / qpstep=4 / cplxblur=20.0 / qblur=0.5 /


Audio
ID : 2
Format : AC-3
Format/Info : Audio Coding 3
Mode extension : CM (complete main)
Format settings, Endianness : Big
Codec ID : A_AC3
Duration : 25mn 28s
Bit rate mode : Constant
Bit rate : 640 Kbps
Channel(s) : 6 channels
Channel positions : Front: L C R, Side: L R, LFE
Sampling rate : 48.0 KHz
Frame rate : 31.250 fps (1536 spf)
Compression mode : Lossy
Delay relative to video : -5ms
Stream size : 117 MiB (10%)
Title : Surround
Language : English
Default : Yes
Screen Shots(Hosted)
CB1.jpg CB2.jpg

CB3.jpg CB4.jpg

CB5.jpg CB6.jpg

CB7.jpg CB8.jpg

CB9.jpg CB10.jpg

Sharing Widget


Download torrent
1.25 GB
seeders:175
leechers:80
A.Charlie.Brown.Christmas.1965.1080p.Plus.Bonus.Feature.Sphinctone1